  0
SECTION
  2
HEADER
  9
$ACADVER
  1
AC1027
  9
$ACADMAINTVER
 70
    55
  9
$DWGCODEPAGE
  3
ANSI_949
  9
$LASTSAVEDBY
  1
DESKTOP
  9
$REQUIREDVERSIONS
160
                 0
  9
$INSBASE
 10
0.0
 20
0.0
 30
0.0
  9
$EXTMIN
 10
-2.340843432375436
 20
-2.33553876537519
 30
-0.0000000000000053
  9
$EXTMAX
 10
234.355107027274
 20
164.5557396051533
 30
0.0000000000000099
  9
$LIMMIN
 10
0.0
 20
0.0
  9
$LIMMAX
 10
420.0
 20
297.0
  9
$ORTHOMODE
 70
     0
  9
$REGENMODE
 70
     1
  9
$FILLMODE
 70
     1
  9
$QTEXTMODE
 70
     0
  9
$MIRRTEXT
 70
     0
  9
$LTSCALE
 40
5.0
  9
$ATTMODE
 70
     1
  9
$TEXTSIZE
 40
3.0
  9
$TRACEWID
 40
1.0
  9
$TEXTSTYLE
  7
Standard
  9
$CLAYER
  8
0
  9
$CELTYPE
  6
ByLayer
  9
$CECOLOR
 62
     7
  9
$CELTSCALE
 40
1.0
  9
$DISPSILH
 70
     0
  9
$DIMSCALE
 40
1.0
  9
$DIMASZ
 40
2.5
  9
$DIMEXO
 40
0.625
  9
$DIMDLI
 40
3.75
  9
$DIMRND
 40
0.0
  9
$DIMDLE
 40
0.0
  9
$DIMEXE
 40
1.25
  9
$DIMTP
 40
0.0
  9
$DIMTM
 40
0.000000001
  9
$DIMTXT
 40
3.0
  9
$DIMCEN
 40
-0.5
  9
$DIMTSZ
 40
0.0
  9
$DIMTOL
 70
     0
  9
$DIMLIM
 70
     0
  9
$DIMTIH
 70
     0
  9
$DIMTOH
 70
     0
  9
$DIMSE1
 70
     0
  9
$DIMSE2
 70
     0
  9
$DIMTAD
 70
     1
  9
$DIMZIN
 70
     8
  9
$DIMBLK
  1

  9
$DIMASO
 70
     1
  9
$DIMSHO
 70
     1
  9
$DIMPOST
  1

  9
$DIMAPOST
  1

  9
$DIMALT
 70
     0
  9
$DIMALTD
 70
     3
  9
$DIMALTF
 40
0.03937007874016
  9
$DIMLFAC
 40
1.0
  9
$DIMTOFL
 70
     1
  9
$DIMTVP
 40
0.0
  9
$DIMTIX
 70
     0
  9
$DIMSOXD
 70
     0
  9
$DIMSAH
 70
     0
  9
$DIMBLK1
  1

  9
$DIMBLK2
  1

  9
$DIMSTYLE
  2
Standard
  9
$DIMCLRD
 70
     3
  9
$DIMCLRE
 70
     3
  9
$DIMCLRT
 70
     2
  9
$DIMTFAC
 40
0.7
  9
$DIMGAP
 40
0.625
  9
$DIMJUST
 70
     0
  9
$DIMSD1
 70
     0
  9
$DIMSD2
 70
     0
  9
$DIMTOLJ
 70
     0
  9
$DIMTZIN
 70
     8
  9
$DIMALTZ
 70
     0
  9
$DIMALTTZ
 70
     0
  9
$DIMUPT
 70
     0
  9
$DIMDEC
 70
     8
  9
$DIMTDEC
 70
     8
  9
$DIMALTU
 70
     2
  9
$DIMALTTD
 70
     3
  9
$DIMTXSTY
  7
Standard
  9
$DIMAUNIT
 70
     1
  9
$DIMADEC
 70
     1
  9
$DIMALTRND
 40
0.0
  9
$DIMAZIN
 70
     0
  9
$DIMDSEP
 70
    46
  9
$DIMATFIT
 70
     3
  9
$DIMFRAC
 70
     0
  9
$DIMLDRBLK
  1

  9
$DIMLUNIT
 70
     2
  9
$DIMLWD
 70
    -1
  9
$DIMLWE
 70
    -1
  9
$DIMTMOVE
 70
     0
  9
$DIMFXL
 40
1.0
  9
$DIMFXLON
 70
     0
  9
$DIMJOGANG
 40
0.7853981633974483
  9
$DIMTFILL
 70
     0
  9
$DIMTFILLCLR
 70
     0
  9
$DIMARCSYM
 70
     1
  9
$DIMLTYPE
  6

  9
$DIMLTEX1
  6

  9
$DIMLTEX2
  6

  9
$DIMTXTDIRECTION
 70
     0
  9
$LUNITS
 70
     2
  9
$LUPREC
 70
     4
  9
$SKETCHINC
 40
0.0
  9
$FILLETRAD
 40
0.0
  9
$AUNITS
 70
     0
  9
$AUPREC
 70
     0
  9
$MENU
  1
.
  9
$ELEVATION
 40
0.0
  9
$PELEVATION
 40
0.0
  9
$THICKNESS
 40
0.0
  9
$LIMCHECK
 70
     0
  9
$CHAMFERA
 40
0.5
  9
$CHAMFERB
 40
0.5
  9
$CHAMFERC
 40
0.0
  9
$CHAMFERD
 40
0.0087266462599716
  9
$SKPOLY
 70
     0
  9
$TDCREATE
 40
2455072.745932974
  9
$TDUCREATE
 40
2455072.370932974
  9
$TDUPDATE
 40
2461019.639031146
  9
$TDUUPDATE
 40
2461019.264031146
  9
$TDINDWG
 40
132.1676596065
  9
$TDUSRTIMER
 40
132.1676594213
  9
$USRTIMER
 70
     1
  9
$ANGBASE
 50
0.0
  9
$ANGDIR
 70
     0
  9
$PDMODE
 70
     0
  9
$PDSIZE
 40
0.0
  9
$PLINEWID
 40
0.0
  9
$SPLFRAME
 70
     0
  9
$SPLINETYPE
 70
     6
  9
$SPLINESEGS
 70
     8
  9
$HANDSEED
  5
4DE86
  9
$SURFTAB1
 70
     6
  9
$SURFTAB2
 70
     6
  9
$SURFTYPE
 70
     6
  9
$SURFU
 70
     6
  9
$SURFV
 70
     6
  9
$UCSBASE
  2

  9
$UCSNAME
  2

  9
$UCSORG
 10
0.0
 20
0.0
 30
0.0
  9
$UCSXDIR
 10
1.0
 20
0.0
 30
0.0
  9
$UCSYDIR
 10
0.0
 20
1.0
 30
0.0
  9
$UCSORTHOREF
  2

  9
$UCSORTHOVIEW
 70
     0
  9
$UCSORGTOP
 10
0.0
 20
0.0
 30
0.0
  9
$UCSORGBOTTOM
 10
0.0
 20
0.0
 30
0.0
  9
$UCSORGLEFT
 10
0.0
 20
0.0
 30
0.0
  9
$UCSORGRIGHT
 10
0.0
 20
0.0
 30
0.0
  9
$UCSORGFRONT
 10
0.0
 20
0.0
 30
0.0
  9
$UCSORGBACK
 10
0.0
 20
0.0
 30
0.0
  9
$PUCSBASE
  2

  9
$PUCSNAME
  2

  9
$PUCSORG
 10
0.0
 20
0.0
 30
0.0
  9
$PUCSXDIR
 10
1.0
 20
0.0
 30
0.0
  9
$PUCSYDIR
 10
0.0
 20
1.0
 30
0.0
  9
$PUCSORTHOREF
  2

  9
$PUCSORTHOVIEW
 70
     0
  9
$PUCSORGTOP
 10
0.0
 20
0.0
 30
0.0
  9
$PUCSORGBOTTOM
 10
0.0
 20
0.0
 30
0.0
  9
$PUCSORGLEFT
 10
0.0
 20
0.0
 30
0.0
  9
$PUCSORGRIGHT
 10
0.0
 20
0.0
 30
0.0
  9
$PUCSORGFRONT
 10
0.0
 20
0.0
 30
0.0
  9
$PUCSORGBACK
 10
0.0
 20
0.0
 30
0.0
  9
$USERI1
 70
     0
  9
$USERI2
 70
     0
  9
$USERI3
 70
     0
  9
$USERI4
 70
     0
  9
$USERI5
 70
     0
  9
$USERR1
 40
0.0
  9
$USERR2
 40
0.0
  9
$USERR3
 40
0.0
  9
$USERR4
 40
0.0
  9
$USERR5
 40
0.0
  9
$WORLDVIEW
 70
     1
  9
$SHADEDGE
 70
     3
  9
$SHADEDIF
 70
    70
  9
$TILEMODE
 70
     1
  9
$MAXACTVP
 70
    64
  9
$PINSBASE
 10
0.0
 20
0.0
 30
0.0
  9
$PLIMCHECK
 70
     0
  9
$PEXTMIN
 10
1.000000000000000E+20
 20
1.000000000000000E+20
 30
1.000000000000000E+20
  9
$PEXTMAX
 10
-1.000000000000000E+20
 20
-1.000000000000000E+20
 30
-1.000000000000000E+20
  9
$PLIMMIN
 10
-20.0
 20
-7.5
  9
$PLIMMAX
 10
277.0
 20
202.5
  9
$UNITMODE
 70
     0
  9
$VISRETAIN
 70
     1
  9
$PLINEGEN
 70
     0
  9
$PSLTSCALE
 70
     1
  9
$TREEDEPTH
 70
  3020
  9
$CMLSTYLE
  2
Standard
  9
$CMLJUST
 70
     0
  9
$CMLSCALE
 40
20.0
  9
$PROXYGRAPHICS
 70
     1
  9
$MEASUREMENT
 70
     1
  9
$CELWEIGHT
370
    -1
  9
$ENDCAPS
280
     0
  9
$JOINSTYLE
280
     0
  9
$LWDISPLAY
290
     0
  9
$INSUNITS
 70
     4
  9
$HYPERLINKBASE
  1

  9
$STYLESHEET
  1
ksm0910.ctb
  9
$XEDIT
290
     1
  9
$CEPSNTYPE
380
     0
  9
$PSTYLEMODE
290
     1
  9
$FINGERPRINTGUID
  2
{D2C70C36-9B4F-4E20-9CCB-531AA1EE4AC8}
  9
$VERSIONGUID
  2
{B03705CE-653B-449C-944F-7BD515A92991}
  9
$EXTNAMES
290
     1
  9
$PSVPSCALE
 40
0.0
  9
$OLESTARTUP
290
     0
  9
$SORTENTS
280
   127
  9
$INDEXCTL
280
     0
  9
$HIDETEXT
280
     1
  9
$XCLIPFRAME
280
     2
  9
$HALOGAP
280
     0
  9
$OBSCOLOR
 70
   257
  9
$OBSLTYPE
280
     0
  9
$INTERSECTIONDISPLAY
280
     0
  9
$INTERSECTIONCOLOR
 70
   257
  9
$DIMASSOC
280
     1
  9
$PROJECTNAME
  1

  9
$CAMERADISPLAY
290
     0
  9
$LENSLENGTH
 40
50.0
  9
$CAMERAHEIGHT
 40
0.0
  9
$STEPSPERSEC
 40
2.0
  9
$STEPSIZE
 40
6.0
  9
$3DDWFPREC
 40
2.0
  9
$PSOLWIDTH
 40
5.0
  9
$PSOLHEIGHT
 40
80.0
  9
$LOFTANG1
 40
1.570796326794896
  9
$LOFTANG2
 40
1.570796326794896
  9
$LOFTMAG1
 40
0.0
  9
$LOFTMAG2
 40
0.0
  9
$LOFTPARAM
 70
     7
  9
$LOFTNORMALS
280
     1
  9
$LATITUDE
 40
37.795
  9
$LONGITUDE
 40
-122.394
  9
$NORTHDIRECTION
 40
0.0
  9
$TIMEZONE
 70
 -8000
  9
$LIGHTGLYPHDISPLAY
280
     1
  9
$TILEMODELIGHTSYNCH
280
     1
  9
$CMATERIAL
347
3D
  9
$SOLIDHIST
280
     1
  9
$SHOWHIST
280
     1
  9
$DWFFRAME
280
     2
  9
$DGNFRAME
280
     0
  9
$REALWORLDSCALE
290
     1
  9
$INTERFERECOLOR
 62
     1
  9
$INTERFEREOBJVS
345
46
  9
$INTERFEREVPVS
346
47
  9
$CSHADOW
280
     0
  9
$SHADOWPLANELOCATION
 40
0.0
  0
ENDSEC
  0
SECTION
  2
CLASSES
  0
CLASS
  1
ACDBDICTIONARYWDFLT
  2
AcDbDictionaryWithDefault
  3
ObjectDBX Classes
 90
        0
 91
        1
280
     0
281
     0
  0
CLASS
  1
DICTIONARYVAR
  2
AcDbDictionaryVar
  3
ObjectDBX Classes
 90
        0
 91
       18
280
     0
281
     0
  0
CLASS
  1
TABLESTYLE
  2
AcDbTableStyle
  3
ObjectDBX Classes
 90
     4095
 91
        1
280
     0
281
     0
  0
CLASS
  1
MATERIAL
  2
AcDbMaterial
  3
ObjectDBX Classes
 90
     1153
 91
        3
280
     0
281
     0
  0
CLASS
  1
VISUALSTYLE
  2
AcDbVisualStyle
  3
ObjectDBX Classes
 90
     4095
 91
       26
280
     0
281
     0
  0
CLASS
  1
SCALE
  2
AcDbScale
  3
ObjectDBX Classes
 90
     1153
 91
       17
280
     0
281
     0
  0
CLASS
  1
MLEADERSTYLE
  2
AcDbMLeaderStyle
  3
ACDB_MLEADERSTYLE_CLASS
 90
     4095
 91
        1
280
     0
281
     0
  0
CLASS
  1
CELLSTYLEMAP
  2
AcDbCellStyleMap
  3
ObjectDBX Classes
 90
     1152
 91
        2
280
     0
281
     0
  0
CLASS
  1
SORTENTSTABLE
  2
AcDbSortentsTable
  3
ObjectDBX Classes
 90
        0
 91
        1
280
     0
281
     0
  0
CLASS
  1
DIMASSOC
  2
AcDbDimAssoc
  3
"AcDbDimAssoc|Product Desc:     AcDim ARX App For Dimension|Company:          Autodesk, Inc.|WEB Address:      www.autodesk.com"
 90
        0
 91
        0
280
     0
281
     0
  0
CLASS
  1
SOLID_BACKGROUND
  2
AcDbSolidBackground
  3
SCENEOE
 90
     4095
 91
        0
280
     0
281
     0
  0
CLASS
  1
NPOCOLLECTION
  2
AcDbImpNonPersistentObjectsCollection
  3
ObjectDBX Classes
 90
     1153
 91
        0
280
     0
281
     0
  0
CLASS
  1
ACAD_EVALUATION_GRAPH
  2
AcDbEvalGraph
  3
ObjectDBX Classes
 90
     1153
 91
        0
280
     0
281
     0
  0
CLASS
  1
ACAECUSTOBJ
  2
AcAeEditorObj
  3
AcAeEditorObj
 90
     1024
 91
        0
280
     1
281
     0
  0
CLASS
  1
ACDB_DYNAMICBLOCKPURGEPREVENTER_VERSION
  2
AcDbDynamicBlockPurgePreventer
  3
ObjectDBX Classes
 90
     1153
 91
        0
280
     0
281
     0
  0
CLASS
  1
HELIX
  2
AcDbHelix
  3
ObjectDBX Classes
 90
     4095
 91
        0
280
     0
281
     1
  0
CLASS
  1
MULTILEADER
  2
AcDbMLeader
  3
ACDB_MLEADER_CLASS
 90
     1025
 91
        0
280
     0
281
     1
  0
CLASS
  1
ACMDIMBREAKPERSREACTOR
  2
AcmDimBreakPersReactor
  3
amgDimApp().moduleName()
 90
     1023
 91
        0
280
     1
281
     0
  0
CLASS
  1
ACDB_MTEXTOBJECTCONTEXTDATA_CLASS
  2
AcDbMTextObjectContextData
  3
ObjectDBX Classes
 90
     1153
 91
        0
280
     0
281
     0
  0
CLASS
  1
BREAKDATA
  2
AcDbBreakData
  3
ObjectDBX Classes
 90
     1024
 91
        0
280
     0
281
     0
  0
CLASS
  1
EXACXREFPANELOBJECT
  2
ExAcXREFPanelObject
  3
EXAC_ESW
 90
     1025
 91
        0
280
     1
281
     0
  0
CLASS
  1
ACDBSECTIONVIEWSTYLE
  2
AcDbSectionViewStyle
  3
ObjectDBX Classes
 90
     1025
 91
        2
280
     0
281
     0
  0
CLASS
  1
ACDBDETAILVIEWSTYLE
  2
AcDbDetailViewStyle
  3
ObjectDBX Classes
 90
     1025
 91
        2
280
     0
281
     0
  0
CLASS
  1
ACDBASSOCACTION
  2
AcDbAssocAction
  3
ObjectDBX Classes
 90
     1025
 91
        1
280
     0
281
     0
  0
CLASS
  1
ACDBASSOCARRAYACTIONBODY
  2
AcDbAssocArrayActionBody
  3
ObjectDBX Classes
 90
     1025
 91
        1
280
     0
281
     0
  0
CLASS
  1
ACDBASSOCDEPENDENCY
  2
AcDbAssocDependency
  3
ObjectDBX Classes
 90
     1025
 91
        3
280
     0
281
     0
  0
CLASS
  1
ACDBASSOCVERTEXACTIONPARAM
  2
AcDbAssocVertexActionParam
  3
ObjectDBX Classes
 90
     1025
 91
        3
280
     0
281
     0
  0
CLASS
  1
ACDBASSOCARRAYPOLARPARAMETERS
  2
AcDbAssocArrayPolarParameters
  3
ObjectDBX Classes
 90
     1025
 91
        0
280
     0
281
     0
  0
CLASS
  1
ACDBASSOCNETWORK
  2
AcDbAssocNetwork
  3
ObjectDBX Classes
 90
     1025
 91
        2
280
     0
281
     0
  0
CLASS
  1
ACARRAYJIGENTITY
  2
AcArrayJigEntity
  3
ACAD_ARRAY
 90
      129
 91
        0
280
     0
281
     1
  0
ENDSEC
  0
SECTION
  2
TABLES
  0
TABLE
  2
VPORT
  5
2C
102
{ACAD_XDICTIONARY
360
31
102
}
330
0
100
AcDbSymbolTable
 70
     1
  0
VPORT
  5
2D
330
2C
100
AcDbSymbolTableRecord
100
AcDbViewportTableRecord
  2
*Active
 70
     0
 10
0.0
 20
0.0
 11
1.0
 21
1.0
 12
116.0254373045052
 22
81.1116357283794
 13
0.0
 23
0.0
 14
2.0
 24
2.0
 15
2.0
 25
2.0
 16
0.0
 26
0.0
 36
1.0
 17
0.0
 27
0.0
 37
0.0
 40
168.0763470242782
 41
2.176540284360189
 42
50.0
 43
0.0
 44
0.0
 50
0.0
 51
0.0
 71
     0
 72
  1000
 73
     1
 74
     3
 75
     0
 76
     0
 77
     0
 78
     1
281
     0
 65
     1
110
0.0
120
0.0
130
0.0
111
1.0
121
0.0
131
0.0
112
0.0
122
1.0
132
0.0
 79
     0
146
0.0
348
2E
 60
     3
 61
     5
292
     1
282
     1
141
0.0
142
0.0
 63
   250
421
  3355443
1001
ACAD_NAV_VCDISPLAY
1070
     3
  0
ENDTAB
  0
TABLE
  2
LTYPE
  5
27
330
0
100
AcDbSymbolTable
 70
     3
  0
LTYPE
  5
28
330
27
100
AcDbSymbolTableRecord
100
AcDbLinetypeTableRecord
  2
ByBlock
 70
     0
  3

 72
    65
 73
     0
 40
0.0
  0
LTYPE
  5
29
330
27
100
AcDbSymbolTableRecord
100
AcDbLinetypeTableRecord
  2
ByLayer
 70
     0
  3

 72
    65
 73
     0
 40
0.0
  0
LTYPE
  5
14
330
27
100
AcDbSymbolTableRecord
100
AcDbLinetypeTableRecord
  2
Continuous
 70
     0
  3
Solid line
 72
    65
 73
     0
 40
0.0
  0
LTYPE
  5
4DD
330
27
100
AcDbSymbolTableRecord
100
AcDbLinetypeTableRecord
  2
CENTER
 70
     0
  3
____ _ ____ _ ____ _ ____ _ ____ _ ____ _ ____ 
 72
    65
 73
     4
 40
2.0
 49
1.25
 74
     0
 49
-0.25
 74
     0
 49
0.25
 74
     0
 49
-0.25
 74
     0
  0
LTYPE
  5
43B1A
330
27
100
AcDbSymbolTableRecord
100
AcDbLinetypeTableRecord
  2
CENTER2
 70
     0
  3
Center (.5x) ___ _ ___ _ ___ _ ___ _ ___ _ ___
 72
    65
 73
     4
 40
1.125
 49
0.75
 74
     0
 49
-0.125
 74
     0
 49
0.125
 74
     0
 49
-0.125
 74
     0
  0
ENDTAB
  0
TABLE
  2
LAYER
  5
21
102
{ACAD_XDICTIONARY
360
22
102
}
330
0
100
AcDbSymbolTable
 70
     3
  0
LAYER
  5
6
102
{ACAD_XDICTIONARY
360
7
102
}
330
21
100
AcDbSymbolTableRecord
100
AcDbLayerTableRecord
  2
0
 70
     0
 62
     7
  6
Continuous
370
    -3
390
9
347
C
348
0
  0
LAYER
  5
1A4
330
21
100
AcDbSymbolTableRecord
100
AcDbLayerTableRecord
  2
DEFPOINTS
 70
     0
 62
     7
  6
Continuous
290
     0
370
    -3
390
9
347
C
348
0
  0
LAYER
  5
283CB
330
21
100
AcDbSymbolTableRecord
100
AcDbLayerTableRecord
  2
Layer 1
 70
     0
 62
     7
  6
Continuous
370
     0
390
9
347
C
348
0
  0
ENDTAB
  0
TABLE
  2
STYLE
  5
24
330
0
100
AcDbSymbolTable
 70
     4
  0
STYLE
  5
25
330
24
100
AcDbSymbolTableRecord
100
AcDbTextStyleTableRecord
  2
Standard
 70
     0
 40
3.0
 41
1.0
 50
0.0
 71
     0
 42
3.0
  3
isocp.shx
  4
whgtxt.shx
  0
STYLE
  5
35
330
24
100
AcDbSymbolTableRecord
100
AcDbTextStyleTableRecord
  2
ROMANS
 70
     0
 40
2.5
 41
1.0
 50
0.0
 71
     0
 42
2.5
  3
romans.shx
  4

  0
STYLE
  5
5C
330
24
100
AcDbSymbolTableRecord
100
AcDbTextStyleTableRecord
  2
굴림
 70
     0
 40
3.0
 41
1.0
 50
0.0
 71
     0
 42
3.0
  3

  4

1001
ACAD
1000
Gulim
1071
    33074
  0
ENDTAB
  0
TABLE
  2
VIEW
  5
2A
330
0
100
AcDbSymbolTable
 70
     0
  0
ENDTAB
  0
TABLE
  2
UCS
  5
2B
330
0
100
AcDbSymbolTable
 70
     0
  0
ENDTAB
  0
TABLE
  2
APPID
  5
32
330
0
100
AcDbSymbolTable
 70
    44
  0
APPID
  5
13
330
32
100
AcDbSymbolTableRecord
100
AcDbRegAppTableRecord
  2
ACAD
 70
     0
  0
APPID
  5
1A
330
32
100
AcDbSymbolTableRecord
100
AcDbRegAppTableRecord
  2
ACAD_PSEXT
 70
     0
  0
APPID
  5
37
330
32
100
AcDbSymbolTableRecord
100
AcDbRegAppTableRecord
  2
ACAD_DSTYLE_DIMJAG
 70
     0
  0
APPID
  5
38
330
32
100
AcDbSymbolTableRecord
100
AcDbRegAppTableRecord
  2
ACAD_DSTYLE_DIMTALN
 70
     0
  0
APPID
  5
36
330
32
100
AcDbSymbolTableRecord
100
AcDbRegAppTableRecord
  2
ACAD_DSTYLE_DIMJOGGED_JOGANGLE_SYMBOL
 70
     0
  0
APPID
  5
183
330
32
100
AcDbSymbolTableRecord
100
AcDbRegAppTableRecord
  2
AcAecLayerStandard
 70
     0
  0
APPID
  5
3DE
330
32
100
AcDbSymbolTableRecord
100
AcDbRegAppTableRecord
  2
ACAD_DSTYLE_DIMRADIAL_EXTENSION
 70
     0
  0
APPID
  5
530
330
32
100
AcDbSymbolTableRecord
100
AcDbRegAppTableRecord
  2
GRADIENTCOLOR1ACI
 70
     0
  0
APPID
  5
531
330
32
100
AcDbSymbolTableRecord
100
AcDbRegAppTableRecord
  2
GRADIENTCOLOR2ACI
 70
     0
  0
APPID
  5
30
330
32
100
AcDbSymbolTableRecord
100
AcDbRegAppTableRecord
  2
ACAD_NAV_VCDISPLAY
 70
     0
  0
APPID
  5
C34
330
32
100
AcDbSymbolTableRecord
100
AcDbRegAppTableRecord
  2
ACAD_MLEADERVER
 70
     0
  0
APPID
  5
C97
330
32
100
AcDbSymbolTableRecord
100
AcDbRegAppTableRecord
  2
ACAD_EXEMPT_FROM_CAD_STANDARDS
 70
     0
  0
APPID
  5
D79
330
32
100
AcDbSymbolTableRecord
100
AcDbRegAppTableRecord
  2
AcadAnnoMonitorAlertIconDisabled
 70
     0
  0
APPID
  5
1A45
330
32
100
AcDbSymbolTableRecord
100
AcDbRegAppTableRecord
  2
GENIUS_GENODEF_13
 70
     0
  0
APPID
  5
1A46
330
32
100
AcDbSymbolTableRecord
100
AcDbRegAppTableRecord
  2
GENIUS_GENOBJ-N-FIL_13
 70
     0
  0
APPID
  5
1A47
330
32
100
AcDbSymbolTableRecord
100
AcDbRegAppTableRecord
  2
ACAD_DSTYLE_DIMBREAK
 70
     0
  0
APPID
  5
1A48
330
32
100
AcDbSymbolTableRecord
100
AcDbRegAppTableRecord
  2
GENIUS_GENOBJ-N-HTC_13
 70
     0
  0
APPID
  5
1A49
330
32
100
AcDbSymbolTableRecord
100
AcDbRegAppTableRecord
  2
GENIUS_GENHATCH_13
 70
     0
  0
APPID
  5
1A4A
330
32
100
AcDbSymbolTableRecord
100
AcDbRegAppTableRecord
  2
GENIUS_GENREC_14
 70
     0
  0
APPID
  5
1A4B
330
32
100
AcDbSymbolTableRecord
100
AcDbRegAppTableRecord
  2
GENIUS_GENOBJ-N-REC_13
 70
     0
  0
APPID
  5
1A4C
330
32
100
AcDbSymbolTableRecord
100
AcDbRegAppTableRecord
  2
ACAUTHENVIRON
 70
     0
  0
APPID
  5
1A4D
330
32
100
AcDbSymbolTableRecord
100
AcDbRegAppTableRecord
  2
AcDbDynamicBlockTrueName
 70
     0
  0
APPID
  5
1A4E
330
32
100
AcDbSymbolTableRecord
100
AcDbRegAppTableRecord
  2
AcDbDynamicBlockGUID
 70
     0
  0
APPID
  5
1A4F
330
32
100
AcDbSymbolTableRecord
100
AcDbRegAppTableRecord
  2
AcDbBlockRepETag
 70
     0
  0
APPID
  5
1A50
330
32
100
AcDbSymbolTableRecord
100
AcDbRegAppTableRecord
  2
DCO15
 70
     0
  0
APPID
  5
1A51
330
32
100
AcDbSymbolTableRecord
100
AcDbRegAppTableRecord
  2
ACAD_DSTYLE_DIMTEXT_FILL
 70
     0
  0
APPID
  5
1A52
330
32
100
AcDbSymbolTableRecord
100
AcDbRegAppTableRecord
  2
ACAD_DSTYLE_DIM_LINETYPE
 70
     0
  0
APPID
  5
1A53
330
32
100
AcDbSymbolTableRecord
100
AcDbRegAppTableRecord
  2
ACAD_DSTYLE_DIM_EXT1_LINETYPE
 70
     0
  0
APPID
  5
1A54
330
32
100
AcDbSymbolTableRecord
100
AcDbRegAppTableRecord
  2
ACAD_DSTYLE_DIM_EXT2_LINETYPE
 70
     0
  0
APPID
  5
1A55
330
32
100
AcDbSymbolTableRecord
100
AcDbRegAppTableRecord
  2
ACAD_DSTYLE_DIMINSPECT
 70
     0
  0
APPID
  5
1A56
330
32
100
AcDbSymbolTableRecord
100
AcDbRegAppTableRecord
  2
AcadAnnotative
 70
     0
  0
APPID
  5
1A57
330
32
100
AcDbSymbolTableRecord
100
AcDbRegAppTableRecord
  2
GENIUS_GENDTOL_13
 70
     0
  0
APPID
  5
1A58
330
32
100
AcDbSymbolTableRecord
100
AcDbRegAppTableRecord
  2
GENIUS_GENFIL_13
 70
     0
  0
APPID
  5
1A59
330
32
100
AcDbSymbolTableRecord
100
AcDbRegAppTableRecord
  2
GENIUS_GENOBJ-N-CHA_13
 70
     0
  0
APPID
  5
1A5A
330
32
100
AcDbSymbolTableRecord
100
AcDbRegAppTableRecord
  2
AcadAnnotativeDecomposition
 70
     0
  0
APPID
  5
1A5B
330
32
100
AcDbSymbolTableRecord
100
AcDbRegAppTableRecord
  2
MCAD_NO_VIS
 70
     0
  0
APPID
  5
1A5C
330
32
100
AcDbSymbolTableRecord
100
AcDbRegAppTableRecord
  2
ACAD_TEMP_GRAPHIC
 70
     0
  0
APPID
  5
1A5D
330
32
100
AcDbSymbolTableRecord
100
AcDbRegAppTableRecord
  2
ACATTRIBSERVICES
 70
     0
  0
APPID
  5
1A5E
330
32
100
AcDbSymbolTableRecord
100
AcDbRegAppTableRecord
  2
DESIGNERASSEMBLIES
 70
     0
  0
APPID
  5
1A5F
330
32
100
AcDbSymbolTableRecord
100
AcDbRegAppTableRecord
  2
GENIUS_GENDIMSH_14
 70
     0
  0
APPID
  5
1A60
330
32
100
AcDbSymbolTableRecord
100
AcDbRegAppTableRecord
  2
ACAD_DSTYLE_DIMARC_LENGTH_SYMBOL
 70
     0
  0
APPID
  5
1A61
330
32
100
AcDbSymbolTableRecord
100
AcDbRegAppTableRecord
  2
ACAD_SPLINE_DATA
 70
     0
  0
APPID
  5
1A62
330
32
100
AcDbSymbolTableRecord
100
AcDbRegAppTableRecord
  2
GENIUS_GENOREF_13
 70
     0
  0
APPID
  5
1A63
330
32
100
AcDbSymbolTableRecord
100
AcDbRegAppTableRecord
  2
ACAD_DSTYLE_DIMANGULAR_EXTENSION
 70
     0
  0
ENDTAB
  0
TABLE
  2
DIMSTYLE
  5
33
330
0
100
AcDbSymbolTable
 70
     3
100
AcDbDimStyleTable
 71
     1
340
34
  0
DIMSTYLE
105
34
330
33
100
AcDbSymbolTableRecord
100
AcDbDimStyleTableRecord
  2
Standard
 70
     0
 41
2.5
 73
     0
 77
     3
 78
     8
140
2.5
141
-1.0
147
1.0
175
     1
176
     3
177
     3
178
     2
179
     8
271
     8
272
     8
275
     1
340
35
1001
ACAD_DSTYLE_DIMJOGGED_JOGANGLE_SYMBOL
1070
   384
1040
0.7853981633974483
1001
ACAD_DSTYLE_DIMJAG
1070
   388
1040
1.5
1001
ACAD_DSTYLE_DIMTALN
1070
   392
1070
     0
  0
DIMSTYLE
105
1A8
102
{ACAD_REACTORS
330
3FE03
330
3FE04
330
4C316
102
}
330
33
100
AcDbSymbolTableRecord
100
AcDbDimStyleTableRecord
  2
Standard$0
 70
     0
 41
2.5
 73
     0
 77
     3
 78
     8
140
2.5
141
-1.0
147
1.0
175
     1
176
     3
177
     3
178
     2
179
     8
271
     8
272
     8
275
     1
340
35
  0
ENDTAB
  0
TABLE
  2
BLOCK_RECORD
  5
1
330
0
100
AcDbSymbolTable
 70
     6
  0
BLOCK_RECORD
  5
2
102
{ACAD_XDICTIONARY
360
3
102
}
330
1
100
AcDbSymbolTableRecord
100
AcDbBlockTableRecord
  2
*Model_Space
340
16
 70
     0
280
     1
281
     0
  0
BLOCK_RECORD
  5
1B
330
1
100
AcDbSymbolTableRecord
100
AcDbBlockTableRecord
  2
*Paper_Space
340
1E
 70
     0
280
     1
281
     0
  0
BLOCK_RECORD
  5
3FE06
330
1
100
AcDbSymbolTableRecord
100
AcDbBlockTableRecord
  2
*D0
340
0
 70
     0
280
     1
281
     0
  0
BLOCK_RECORD
  5
3FE10
330
1
100
AcDbSymbolTableRecord
100
AcDbBlockTableRecord
  2
*D1
340
0
 70
     0
280
     1
281
     0
  0
BLOCK_RECORD
  5
4C317
330
1
100
AcDbSymbolTableRecord
100
AcDbBlockTableRecord
  2
*D2
340
0
 70
     0
280
     1
281
     0
  0
BLOCK_RECORD
  5
4DD81
102
{ACAD_REACTORS
330
4DD7C
102
}
330
1
100
AcDbSymbolTableRecord
100
AcDbBlockTableRecord
  2
*U3
340
0
102
{BLKREFS
331
4DD89
331
4DD8A
331
4DD8B
331
4DD8C
331
4DD8D
331
4DD8E
102
}
 70
     0
280
     1
281
     0
  0
BLOCK_RECORD
  5
4DD86
102
{ACAD_XDICTIONARY
360
4DD87
102
}
102
{ACAD_REACTORS
330
4DD7B
102
}
330
1
100
AcDbSymbolTableRecord
100
AcDbBlockTableRecord
  2
*U4
340
0
102
{BLKREFS
331
4DD63
102
}
 70
     0
280
     1
281
     1
  0
ENDTAB
  0
ENDSEC
  0
SECTION
  2
BLOCKS
  0
BLOCK
  5
5
330
2
100
AcDbEntity
  8
0
100
AcDbBlockBegin
  2
*Model_Space
 70
     0
 10
0.0
 20
0.0
 30
0.0
  3
*Model_Space
  1

  0
ENDBLK
  5
15
330
2
100
AcDbEntity
  8
0
100
AcDbBlockEnd
  0
BLOCK
  5
1C
330
1B
100
AcDbEntity
 67
     1
  8
0
100
AcDbBlockBegin
  2
*Paper_Space
 70
     0
 10
0.0
 20
0.0
 30
0.0
  3
*Paper_Space
  1

  0
ENDBLK
  5
1D
330
1B
100
AcDbEntity
 67
     1
  8
0
100
AcDbBlockEnd
  0
BLOCK
  5
3FE07
330
3FE06
100
AcDbEntity
  8
0
 62
     7
100
AcDbBlockBegin
  2
*D0
 70
     1
 10
0.0
 20
0.0
 30
0.0
  3
*D0
  1

  0
LINE
  5
4DDF2
330
3FE06
100
AcDbEntity
  8
0
  6
Continuous
 62
     3
440
 16777216
100
AcDbLine
 10
112.650413667651
 20
90.44403009467364
 30
0.0
 11
124.0908875176426
 21
90.44403009467364
 31
0.0
  0
LINE
  5
4DDF3
330
3FE06
100
AcDbEntity
  8
0
  6
Continuous
 62
     3
440
 16777216
100
AcDbLine
 10
122.8408875176426
 20
87.94403009467364
 30
0.0
 11
122.8408875176426
 21
73.20087064585475
 31
0.0
  0
SOLID
  5
4DDF4
330
3FE06
100
AcDbEntity
  8
0
  6
Continuous
 62
     3
440
 16777216
100
AcDbTrace
 10
122.4242208509759
 20
87.94403009467364
 30
0.0
 11
123.2575541843093
 21
87.94403009467364
 31
0.0
 12
122.8408875176426
 22
90.44403009467364
 32
0.0
 13
122.8408875176426
 23
90.44403009467364
 33
0.0
  0
MTEXT
  5
4DDF5
330
3FE06
100
AcDbEntity
  8
0
  6
Continuous
 62
     2
440
 16777216
100
AcDbMText
 10
120.5658875176426
 20
83.94403009467366
 30
0.0
 40
3.0
 41
0.0
 46
0.0
 71
     5
 72
     1
  1
%%C.315(8 MM)
 11
0.0000000000000001
 21
1.0
 31
0.0
 73
     1
 44
1.0
  0
POINT
  5
4DDF6
330
3FE06
100
AcDbEntity
  8
DEFPOINTS
  6
Continuous
 62
     0
440
 16777216
100
AcDbPoint
 10
111.5254136676713
 20
77.44403009467365
 30
0.0
  0
POINT
  5
4DDF7
330
3FE06
100
AcDbEntity
  8
DEFPOINTS
  6
Continuous
 62
     0
440
 16777216
100
AcDbPoint
 10
112.025413667651
 20
90.44403009467364
 30
0.0
  0
POINT
  5
4DDF8
330
3FE06
100
AcDbEntity
  8
DEFPOINTS
  6
Continuous
 62
     0
440
 16777216
100
AcDbPoint
 10
122.8408875176426
 20
90.44403009467364
 30
0.0
  0
ENDBLK
  5
3FE08
330
3FE06
100
AcDbEntity
  8
0
 62
     7
100
AcDbBlockEnd
  0
BLOCK
  5
3FE11
330
3FE10
100
AcDbEntity
  8
0
 62
     7
100
AcDbBlockBegin
  2
*D1
 70
     1
 10
0.0
 20
0.0
 30
0.0
  3
*D1
  1

  0
LINE
  5
4DDF9
330
3FE10
100
AcDbEntity
  8
0
  6
Continuous
 62
     3
440
 16777216
100
AcDbLine
 10
112.8504136676711
 20
65.94403009467365
 30
0.0
 11
132.0908875176426
 21
65.94403009467365
 31
0.0
  0
LINE
  5
4DDFA
330
3FE10
100
AcDbEntity
  8
0
  6
Continuous
 62
     3
440
 16777216
100
AcDbLine
 10
112.8504136676711
 20
106.9440300946736
 30
0.0
 11
132.0908875176426
 21
106.9440300946736
 31
0.0
  0
LINE
  5
4DDFB
330
3FE10
100
AcDbEntity
  8
0
  6
Continuous
 62
     3
440
 16777216
100
AcDbLine
 10
130.8408875176426
 20
68.44403009467365
 30
0.0
 11
130.8408875176426
 21
104.4440300946736
 31
0.0
  0
SOLID
  5
4DDFC
330
3FE10
100
AcDbEntity
  8
0
  6
Continuous
 62
     3
440
 16777216
100
AcDbTrace
 10
130.4242208509759
 20
68.44403009467365
 30
0.0
 11
131.2575541843092
 21
68.44403009467365
 31
0.0
 12
130.8408875176426
 22
65.94403009467365
 32
0.0
 13
130.8408875176426
 23
65.94403009467365
 33
0.0
  0
SOLID
  5
4DDFD
330
3FE10
100
AcDbEntity
  8
0
  6
Continuous
 62
     3
440
 16777216
100
AcDbTrace
 10
130.4242208509759
 20
104.4440300946736
 30
0.0
 11
131.2575541843092
 21
104.4440300946736
 31
0.0
 12
130.8408875176426
 22
106.9440300946736
 32
0.0
 13
130.8408875176426
 23
106.9440300946736
 33
0.0
  0
MTEXT
  5
4DDFE
330
3FE10
100
AcDbEntity
  8
0
  6
Continuous
 62
     2
440
 16777216
100
AcDbMText
 10
128.7158875176426
 20
86.44403009467366
 30
0.0
 40
3.0
 41
0.0
 46
0.0
 71
     5
 72
     1
  1
%%C1.61
 11
0.0000000000000001
 21
1.0
 31
0.0
 73
     1
 44
1.0
  0
POINT
  5
4DDFF
330
3FE10
100
AcDbEntity
  8
DEFPOINTS
  6
Continuous
 62
     0
440
 16777216
100
AcDbPoint
 10
112.2254136676711
 20
65.94403009467365
 30
0.0
  0
POINT
  5
4DE00
330
3FE10
100
AcDbEntity
  8
DEFPOINTS
  6
Continuous
 62
     0
440
 16777216
100
AcDbPoint
 10
112.2254136676711
 20
106.9440300946736
 30
0.0
  0
POINT
  5
4DE01
330
3FE10
100
AcDbEntity
  8
DEFPOINTS
  6
Continuous
 62
     0
440
 16777216
100
AcDbPoint
 10
130.8408875176426
 20
106.9440300946736
 30
0.0
  0
ENDBLK
  5
3FE12
330
3FE10
100
AcDbEntity
  8
0
 62
     7
100
AcDbBlockEnd
  0
BLOCK
  5
4C318
330
4C317
100
AcDbEntity
  8
0
 62
     7
100
AcDbBlockBegin
  2
*D2
 70
     1
 10
0.0
 20
0.0
 30
0.0
  3
*D2
  1

  0
LINE
  5
4DE02
330
4C317
100
AcDbEntity
  8
0
 62
     3
440
 16777216
100
AcDbLine
 10
80.52541366766154
 20
73.74403009467409
 30
0.0
 11
75.5735317977604
 21
73.74403009467409
 31
0.0
  0
LINE
  5
4DE03
330
4C317
100
AcDbEntity
  8
0
 62
     3
440
 16777216
100
AcDbLine
 10
80.52541366765723
 20
99.1440300946731
 30
0.0
 11
75.57353179776041
 21
99.1440300946731
 31
0.0
  0
LINE
  5
4DE04
330
4C317
100
AcDbEntity
  8
0
 62
     3
440
 16777216
100
AcDbLine
 10
76.8235317977604
 20
76.24403009467409
 30
0.0
 11
76.82353179776041
 21
96.6440300946731
 31
0.0
  0
LINE
  5
4DE05
330
4C317
100
AcDbEntity
  8
0
 62
     3
440
 16777216
100
AcDbLine
 10
76.82353179776041
 20
99.1440300946731
 30
0.0
 11
76.82353179776041
 21
113.6917870794592
 31
0.0
  0
SOLID
  5
4DE06
330
4C317
100
AcDbEntity
  8
0
 62
     3
440
 16777216
100
AcDbTrace
 10
76.40686513109372
 20
76.24403009467409
 30
0.0
 11
77.24019846442707
 21
76.24403009467409
 31
0.0
 12
76.8235317977604
 22
73.74403009467409
 32
0.0
 13
76.8235317977604
 23
73.74403009467409
 33
0.0
  0
SOLID
  5
4DE07
330
4C317
100
AcDbEntity
  8
0
 62
     3
440
 16777216
100
AcDbTrace
 10
76.40686513109374
 20
96.6440300946731
 30
0.0
 11
77.24019846442708
 21
96.6440300946731
 31
0.0
 12
76.82353179776041
 22
99.1440300946731
 32
0.0
 13
76.82353179776041
 23
99.1440300946731
 33
0.0
  0
MTEXT
  5
4DE08
330
4C317
100
AcDbEntity
  8
0
 62
     2
440
 16777216
100
AcDbMText
 10
74.69853179776038
 20
107.815605977097
 30
0.0
 40
3.0
 41
0.0
 46
0.0
 71
     5
 72
     1
  1
%%C1.000
 11
0.0000000000000001
 21
1.0
 31
0.0
 73
     1
 44
1.0
  0
POINT
  5
4DE09
330
4C317
100
AcDbEntity
  8
DEFPOINTS
 62
     0
440
 16777216
100
AcDbPoint
 10
81.15041366766154
 20
73.74403009467409
 30
0.0
  0
POINT
  5
4DE0A
330
4C317
100
AcDbEntity
  8
DEFPOINTS
 62
     0
440
 16777216
100
AcDbPoint
 10
81.15041366765723
 20
99.1440300946731
 30
0.0
  0
POINT
  5
4DE0B
330
4C317
100
AcDbEntity
  8
DEFPOINTS
 62
     0
440
 16777216
100
AcDbPoint
 10
76.82353179776041
 20
99.1440300946731
 30
0.0
  0
ENDBLK
  5
4C319
330
4C317
100
AcDbEntity
  8
0
 62
     7
100
AcDbBlockEnd
  0
BLOCK
  5
4DD82
330
4DD81
100
AcDbEntity
  8
0
100
AcDbBlockBegin
  2
*U3
 70
     1
 10
0.0
 20
0.0
 30
0.0
  3
*U3
  1

  0
ARC
  5
4DD83
330
4DD81
100
AcDbEntity
  8
0
  6
Continuous
 62
     3
100
AcDbCircle
 10
-0.1019919929611888
 20
0.0000000000000284
 30
0.0
 40
2.5
100
AcDbArc
 50
246.2224425079727
 51
156.6942100949507
  0
CIRCLE
  5
4DD84
330
4DD81
100
AcDbEntity
  8
0
  6
Continuous
 62
     7
100
AcDbCircle
 10
-0.1019919929611888
 20
0.0000000000000284
 30
0.0
 40
2.149999999999999
  0
ENDBLK
  5
4DD85
330
4DD81
100
AcDbEntity
  8
0
100
AcDbBlockEnd
  0
BLOCK
  5
4DD88
330
4DD86
100
AcDbEntity
  8
0
100
AcDbBlockBegin
  2
*U4
 70
     1
 10
0.0
 20
0.0
 30
0.0
  3
*U4
  1

  0
INSERT
  5
4DD89
330
4DD86
100
AcDbEntity
  8
0
  6
ByBlock
347
3E
 62
     0
440
 16777216
370
    -2
380
     1
100
AcDbBlockReference
  2
*U3
 10
324.3486555669998
 20
159.7650269865458
 30
0.0
  0
INSERT
  5
4DD8A
330
4DD86
100
AcDbEntity
  8
0
  6
ByBlock
347
3E
 62
     0
440
 16777216
370
    -2
380
     1
100
AcDbBlockReference
  2
*U3
 10
309.8783365975068
 20
151.528354643432
 30
0.0
 50
60.0
  0
INSERT
  5
4DD8B
330
4DD86
100
AcDbEntity
  8
0
  6
ByBlock
347
3E
 62
     0
440
 16777216
370
    -2
380
     1
100
AcDbBlockReference
  2
*U3
 10
309.7763446045457
 20
134.8783546434303
 30
0.0
 50
120.0
  0
INSERT
  5
4DD8C
330
4DD86
100
AcDbEntity
  8
0
  6
ByBlock
347
3E
 62
     0
440
 16777216
370
    -2
380
     1
100
AcDbBlockReference
  2
*U3
 10
324.1446715810774
 20
126.4650269865425
 30
0.0
 50
180.0
  0
INSERT
  5
4DD8D
330
4DD86
100
AcDbEntity
  8
0
  6
ByBlock
347
3E
 62
     0
440
 16777216
370
    -2
380
     1
100
AcDbBlockReference
  2
*U3
 10
338.6149905505704
 20
134.7016993296563
 30
0.0
 41
1.0
 42
1.0
 43
1.0
 50
240.0
  0
INSERT
  5
4DD8E
330
4DD86
100
AcDbEntity
  8
0
  6
ByBlock
347
3E
 62
     0
440
 16777216
370
    -2
380
     1
100
AcDbBlockReference
  2
*U3
 10
338.7169825435316
 20
151.351699329658
 30
0.0
 41
0.9999999999999998
 42
0.9999999999999998
 43
0.9999999999999998
 50
300.0
  0
ENDBLK
  5
4DD8F
330
4DD86
100
AcDbEntity
  8
0
100
AcDbBlockEnd
  0
ENDSEC
  0
SECTION
  2
ENTITIES
  0
LWPOLYLINE
  5
3D824
330
2
100
AcDbEntity
  8
0
 62
     0
100
AcDbPolyline
 90
        4
 70
     1
 43
0.0
 10
0.5
 20
0.5
 10
0.5
 20
161.7244210126602
 10
231.535
 20
161.7244210126602
 10
231.535
 20
0.5
  0
LINE
  5
3D825
330
2
100
AcDbEntity
  8
0
  6
Continuous
 62
     7
100
AcDbLine
 10
173.7762499999999
 20
-2.317499999999999
 30
0.0
 11
173.7762499999999
 21
0.5
 31
0.0
  0
LINE
  5
3D826
330
2
100
AcDbEntity
  8
0
  6
Continuous
 62
     7
100
AcDbLine
 10
170.9587499999999
 20
0.5
 30
0.0
 11
170.9587499999999
 21
23.17218420490535
 31
0.0
  0
LINE
  5
3D827
330
2
100
AcDbEntity
  8
0
  6
Continuous
 62
     7
100
AcDbLine
 10
58.25875000000002
 20
-2.317499999999999
 30
0.0
 11
58.25875000000002
 21
0.5
 31
0.0
  0
LINE
  5
3D828
330
2
100
AcDbEntity
  8
0
  6
Continuous
 62
     7
100
AcDbLine
 10
173.7762499999999
 20
164.5419210126602
 30
0.0
 11
173.7762499999999
 21
161.7244210126602
 31
0.0
  0
LINE
  5
3D829
330
2
100
AcDbEntity
  8
0
  6
Continuous
 62
     7
100
AcDbLine
 10
58.25875000000002
 20
164.5419210126602
 30
0.0
 11
58.25875000000002
 21
161.7244210126602
 31
0.0
  0
LINE
  5
3D82A
330
2
100
AcDbEntity
  8
0
  6
Continuous
 62
     7
100
AcDbLine
 10
-2.317499999999995
 20
40.80610525316505
 30
0.0
 11
0.5
 21
40.80610525316505
 31
0.0
  0
LINE
  5
3D82B
330
2
100
AcDbEntity
  8
0
  6
Continuous
 62
     7
100
AcDbLine
 10
-2.317499999999995
 20
121.4183157594951
 30
0.0
 11
0.5
 21
121.4183157594951
 31
0.0
  0
LINE
  5
3D82C
330
2
100
AcDbEntity
  8
0
  6
Continuous
 62
     7
100
AcDbLine
 10
234.3525000000001
 20
40.80610525316505
 30
0.0
 11
231.535
 21
40.80610525316505
 31
0.0
  0
LINE
  5
3D82D
330
2
100
AcDbEntity
  8
0
  6
Continuous
 62
     7
100
AcDbLine
 10
234.3525000000001
 20
121.4183157594951
 30
0.0
 11
231.535
 21
121.4183157594951
 31
0.0
  0
LINE
  5
3D82E
330
2
100
AcDbEntity
  8
0
  6
Continuous
 62
     7
100
AcDbLine
 10
170.9587499999999
 20
15.61478946993689
 30
0.0
 11
231.535
 21
15.61478946993689
 31
0.0
  0
LINE
  5
3D82F
330
2
100
AcDbEntity
  8
0
  6
Continuous
 62
     7
100
AcDbLine
 10
170.9587499999999
 20
23.17218420490535
 30
0.0
 11
231.535
 21
23.17218420490534
 31
0.0
  0
LINE
  5
3D830
330
2
100
AcDbEntity
  8
0
  6
Continuous
 62
     7
100
AcDbLine
 10
170.9587499999999
 20
8.057394734968447
 30
0.0
 11
231.535
 21
8.057394734968447
 31
0.0
  0
LINE
  5
3D831
330
2
100
AcDbEntity
  8
0
  6
Continuous
 62
     7
100
AcDbLine
 10
231.535
 20
81.11221050633011
 30
0.0
 11
234.3525000000001
 21
81.11221050633011
 31
0.0
  0
LINE
  5
3D832
330
2
100
AcDbEntity
  8
0
  6
Continuous
 62
     7
100
AcDbLine
 10
232.94375
 20
80.1542605063301
 30
0.0
 11
232.94375
 21
82.07016050633011
 31
0.0
  0
LINE
  5
3D833
330
2
100
AcDbEntity
  8
0
  6
Continuous
 62
     7
100
AcDbLine
 10
232.94375
 20
80.1542605063301
 30
0.0
 11
231.535
 21
81.11221050633011
 31
0.0
  0
LINE
  5
3D834
330
2
100
AcDbEntity
  8
0
  6
Continuous
 62
     7
100
AcDbLine
 10
231.535
 20
81.11221050633011
 30
0.0
 11
232.94375
 21
82.07016050633011
 31
0.0
  0
LINE
  5
3D835
330
2
100
AcDbEntity
  8
0
  6
Continuous
 62
     7
100
AcDbLine
 10
0.5
 20
81.11221050633011
 30
0.0
 11
-2.317499999999995
 21
81.11221050633011
 31
0.0
  0
LINE
  5
3D836
330
2
100
AcDbEntity
  8
0
  6
Continuous
 62
     7
100
AcDbLine
 10
-0.9087500000000545
 20
80.1542605063301
 30
0.0
 11
-0.9087500000000545
 21
82.07016050633011
 31
0.0
  0
LINE
  5
3D837
330
2
100
AcDbEntity
  8
0
  6
Continuous
 62
     7
100
AcDbLine
 10
-0.9087500000000545
 20
80.1542605063301
 30
0.0
 11
0.5
 21
81.11221050633011
 31
0.0
  0
LINE
  5
3D838
330
2
100
AcDbEntity
  8
0
  6
Continuous
 62
     7
100
AcDbLine
 10
0.5
 20
81.11221050633011
 30
0.0
 11
-0.9087500000000545
 21
82.07016050633011
 31
0.0
  0
LINE
  5
3D839
330
2
100
AcDbEntity
  8
0
  6
Continuous
 62
     7
100
AcDbLine
 10
116.0175
 20
161.7244210126602
 30
0.0
 11
116.0175
 21
164.5419210126602
 31
0.0
  0
LINE
  5
3D83A
330
2
100
AcDbEntity
  8
0
  6
Continuous
 62
     7
100
AcDbLine
 10
115.0595499999999
 20
163.1331710126602
 30
0.0
 11
116.97545
 21
163.1331710126602
 31
0.0
  0
LINE
  5
3D83B
330
2
100
AcDbEntity
  8
0
  6
Continuous
 62
     7
100
AcDbLine
 10
115.0595499999999
 20
163.1331710126602
 30
0.0
 11
116.0175
 21
161.7244210126602
 31
0.0
  0
LINE
  5
3D83C
330
2
100
AcDbEntity
  8
0
  6
Continuous
 62
     7
100
AcDbLine
 10
116.0175
 20
161.7244210126602
 30
0.0
 11
116.97545
 21
163.1331710126602
 31
0.0
  0
LINE
  5
3D83D
330
2
100
AcDbEntity
  8
0
  6
Continuous
 62
     7
100
AcDbLine
 10
116.0175
 20
0.5
 30
0.0
 11
116.0175
 21
-2.317499999999999
 31
0.0
  0
LINE
  5
3D83E
330
2
100
AcDbEntity
  8
0
  6
Continuous
 62
     7
100
AcDbLine
 10
115.0595499999999
 20
-0.9087500000000012
 30
0.0
 11
116.97545
 21
-0.9087500000000012
 31
0.0
  0
LINE
  5
3D83F
330
2
100
AcDbEntity
  8
0
  6
Continuous
 62
     7
100
AcDbLine
 10
115.0595499999999
 20
-0.9087500000000012
 30
0.0
 11
116.0175
 21
0.5
 31
0.0
  0
LINE
  5
3D840
330
2
100
AcDbEntity
  8
0
  6
Continuous
 62
     7
100
AcDbLine
 10
116.0175
 20
0.5
 30
0.0
 11
116.97545
 21
-0.9087500000000012
 31
0.0
  0
TEXT
  5
3D841
330
2
100
AcDbEntity
  8
0
 62
     2
100
AcDbText
 10
28.78936587675781
 20
-1.782846177046135
 30
0.0
 40
1.577799999999999
  1
4
  7
굴림
100
AcDbText
  0
TEXT
  5
3D842
330
2
100
AcDbEntity
  8
0
 62
     2
100
AcDbText
 10
86.60166589423278
 20
-1.782846177046135
 30
0.0
 40
1.577799999999999
  1
3
  7
굴림
100
AcDbText
  0
TEXT
  5
3D843
330
2
100
AcDbEntity
  8
0
 62
     2
100
AcDbText
 10
144.2857027075057
 20
-1.782846177046135
 30
0.0
 40
1.577799999999999
  1
2
  7
굴림
100
AcDbText
  0
TEXT
  5
3D844
330
2
100
AcDbEntity
  8
0
 62
     2
100
AcDbText
 10
202.2206105089068
 20
-1.782846177046135
 30
0.0
 40
1.577799999999999
  1
1
  7
굴림
100
AcDbText
  0
TEXT
  5
3D845
330
2
100
AcDbEntity
  8
0
 62
     2
100
AcDbText
 10
28.78936587675781
 20
162.6227433851264
 30
0.0
 40
1.577799999999999
  1
4
  7
굴림
100
AcDbText
  0
TEXT
  5
3D846
330
2
100
AcDbEntity
  8
0
 62
     2
100
AcDbText
 10
86.60166589423278
 20
162.6227433851264
 30
0.0
 40
1.577799999999999
  1
3
  7
굴림
100
AcDbText
  0
TEXT
  5
3D847
330
2
100
AcDbEntity
  8
0
 62
     2
100
AcDbText
 10
144.2857027075057
 20
162.6227433851264
 30
0.0
 40
1.577799999999999
  1
2
  7
굴림
100
AcDbText
  0
TEXT
  5
3D848
330
2
100
AcDbEntity
  8
0
 62
     2
100
AcDbText
 10
202.2206105089068
 20
162.6227433851264
 30
0.0
 40
1.577799999999999
  1
1
  7
굴림
100
AcDbText
  0
TEXT
  5
3D849
330
2
100
AcDbEntity
  8
0
 62
     2
100
AcDbText
 10
-1.777771666261116
 20
20.12768597797661
 30
0.0
 40
1.577799999999999
  1
A
  7
굴림
100
AcDbText
  0
TEXT
  5
3D84A
330
2
100
AcDbEntity
  8
0
 62
     2
100
AcDbText
 10
-1.777771666261116
 20
60.09941077802205
 30
0.0
 40
1.577799999999999
  1
B
  7
굴림
100
AcDbText
  0
TEXT
  5
3D84B
330
2
100
AcDbEntity
  8
0
 62
     2
100
AcDbText
 10
-1.777771666261116
 20
100.4525583002817
 30
0.0
 40
1.577799999999999
  1
C
  7
굴림
100
AcDbText
  0
TEXT
  5
3D84C
330
2
100
AcDbEntity
  8
0
 62
     2
100
AcDbText
 10
-1.777771666261116
 20
141.054192175402
 30
0.0
 40
1.577799999999999
  1
D
  7
굴림
100
AcDbText
  0
TEXT
  5
3D84D
330
2
100
AcDbEntity
  8
0
 62
     2
100
AcDbText
 10
232.3790232576507
 20
20.12768597797661
 30
0.0
 40
1.577799999999999
  1
A
  7
굴림
100
AcDbText
  0
TEXT
  5
3D84E
330
2
100
AcDbEntity
  8
0
 62
     2
100
AcDbText
 10
232.3790232576507
 20
60.09941077802205
 30
0.0
 40
1.577799999999999
  1
B
  7
굴림
100
AcDbText
  0
TEXT
  5
3D84F
330
2
100
AcDbEntity
  8
0
 62
     2
100
AcDbText
 10
232.3790232576507
 20
100.4525583002817
 30
0.0
 40
1.577799999999999
  1
C
  7
굴림
100
AcDbText
  0
TEXT
  5
3D850
330
2
100
AcDbEntity
  8
0
 62
     2
100
AcDbText
 10
232.3790232576507
 20
141.054192175402
 30
0.0
 40
1.577799999999999
  1
D
  7
굴림
100
AcDbText
  0
HATCH
  5
3D851
330
2
100
AcDbEntity
  8
0
  6
Continuous
 62
     0
100
AcDbHatch
 10
0.0
 20
0.0
 30
0.0
210
0.0
220
0.0
230
1.0
  2
SOLID
 70
     1
 71
     1
 91
        1
 92
        5
 93
       13
 72
     4
 94
        3
 73
     0
 74
     0
 95
        8
 96
        4
 40
1.0
 40
1.0
 40
1.0
 40
1.0
 40
2.0
 40
2.0
 40
2.0
 40
2.0
 10
189.014730617529
 20
19.25376886910951
 10
189.014730617529
 20
19.25376886910951
 10
188.3706084452379
 20
16.30407806181323
 10
188.3706084452379
 20
16.30407806181323
 97
        0
 72
     4
 94
        3
 73
     0
 74
     0
 95
        8
 96
        4
 40
0.0
 40
0.0
 40
0.0
 40
0.0
 40
1.0
 40
1.0
 40
1.0
 40
1.0
 10
188.3706084452379
 20
16.30407806181323
 10
188.3706084452379
 20
16.30407806181323
 10
189.7873924134504
 20
16.30407806181323
 10
189.7873924134504
 20
16.30407806181323
 97
        0
 72
     4
 94
        3
 73
     0
 74
     0
 95
        8
 96
        4
 40
12.0
 40
12.0
 40
12.0
 40
12.0
 40
13.0
 40
13.0
 40
13.0
 40
13.0
 10
189.7873924134504
 20
16.30407806181323
 10
189.7873924134504
 20
16.30407806181323
 10
190.528250333593
 20
20.85086087794934
 10
190.528250333593
 20
20.85086087794934
 97
        0
 72
     4
 94
        3
 73
     0
 74
     0
 95
        8
 96
        4
 40
11.0
 40
11.0
 40
11.0
 40
11.0
 40
12.0
 40
12.0
 40
12.0
 40
12.0
 10
190.528250333593
 20
20.85086087794934
 10
190.528250333593
 20
20.85086087794934
 10
189.0016642962152
 20
20.85086087794934
 10
189.0016642962152
 20
20.85086087794934
 97
        0
 72
     4
 94
        3
 73
     0
 74
     0
 95
        8
 96
        4
 40
10.0
 40
10.0
 40
10.0
 40
10.0
 40
11.0
 40
11.0
 40
11.0
 40
11.0
 10
189.0016642962152
 20
20.85086087794934
 10
189.0016642962152
 20
20.85086087794934
 10
187.4302080617452
 20
18.35216771506252
 10
187.4302080617452
 20
18.35216771506252
 97
        0
 72
     4
 94
        3
 73
     0
 74
     0
 95
        8
 96
        4
 40
9.0
 40
9.0
 40
9.0
 40
9.0
 40
10.0
 40
10.0
 40
10.0
 40
10.0
 10
187.4302080617452
 20
18.35216771506252
 10
187.4302080617452
 20
18.35216771506252
 10
187.1535424591758
 20
20.85086087794934
 10
187.1535424591758
 20
20.85086087794934
 97
        0
 72
     4
 94
        3
 73
     0
 74
     0
 95
        8
 96
        4
 40
8.0
 40
8.0
 40
8.0
 40
8.0
 40
9.0
 40
9.0
 40
9.0
 40
9.0
 10
187.1535424591758
 20
20.85086087794934
 10
187.1535424591758
 20
20.85086087794934
 10
185.6526892920154
 20
20.85086087794934
 10
185.6526892920154
 20
20.85086087794934
 97
        0
 72
     4
 94
        3
 73
     0
 74
     0
 95
        8
 96
        4
 40
7.0
 40
7.0
 40
7.0
 40
7.0
 40
8.0
 40
8.0
 40
8.0
 40
8.0
 10
185.6526892920154
 20
20.85086087794934
 10
185.6526892920154
 20
20.85086087794934
 10
183.9976635228218
 20
16.30407806181323
 10
183.9976635228218
 20
16.30407806181323
 97
        0
 72
     4
 94
        3
 73
     0
 74
     0
 95
        8
 96
        4
 40
6.0
 40
6.0
 40
6.0
 40
6.0
 40
7.0
 40
7.0
 40
7.0
 40
7.0
 10
183.9976635228218
 20
16.30407806181323
 10
183.9976635228218
 20
16.30407806181323
 10
185.3822439157376
 20
16.30407806181323
 10
185.3822439157376
 20
16.30407806181323
 97
        0
 72
     4
 94
        3
 73
     0
 74
     0
 95
        8
 96
        4
 40
5.0
 40
5.0
 40
5.0
 40
5.0
 40
6.0
 40
6.0
 40
6.0
 40
6.0
 10
185.3822439157376
 20
16.30407806181323
 10
185.3822439157376
 20
16.30407806181323
 10
186.3161986040878
 20
19.31807615603367
 10
186.3161986040878
 20
19.31807615603367
 97
        0
 72
     4
 94
        3
 73
     0
 74
     0
 95
        8
 96
        4
 40
4.0
 40
4.0
 40
4.0
 40
4.0
 40
5.0
 40
5.0
 40
5.0
 40
5.0
 10
186.3161986040878
 20
19.31807615603367
 10
186.3161986040878
 20
19.31807615603367
 10
186.6575219048462
 20
16.30407806181323
 10
186.6575219048462
 20
16.30407806181323
 97
        0
 72
     4
 94
        3
 73
     0
 74
     0
 95
        8
 96
        4
 40
3.0
 40
3.0
 40
3.0
 40
3.0
 40
4.0
 40
4.0
 40
4.0
 40
4.0
 10
186.6575219048462
 20
16.30407806181323
 10
186.6575219048462
 20
16.30407806181323
 10
187.1083968096594
 20
16.30407806181323
 10
187.1083968096594
 20
16.30407806181323
 97
        0
 72
     4
 94
        3
 73
     0
 74
     0
 95
        8
 96
        4
 40
2.0
 40
2.0
 40
2.0
 40
2.0
 40
3.0
 40
3.0
 40
3.0
 40
3.0
 10
187.1083968096594
 20
16.30407806181323
 10
187.1083968096594
 20
16.30407806181323
 10
189.014730617529
 20
19.25376886910951
 10
189.014730617529
 20
19.25376886910951
 97
        0
 97
       13
330
3D85E
330
3D85D
330
3D85C
330
3D85B
330
3D85A
330
3D859
330
3D858
330
3D857
330
3D856
330
3D855
330
3D854
330
3D853
330
3D852
 75
     1
 76
     1
 47
0.0269459378258844
 98
        1
 10
189.0969073776867
 20
17.84991882150356
450
        0
451
        0
460
0.0
461
0.0
452
        0
462
1.0
453
        2
463
0.0
 63
     5
421
      255
463
1.0
 63
     2
421
 16776960
470
LINEAR
1001
GRADIENTCOLOR1ACI
1070
     5
1001
GRADIENTCOLOR2ACI
1070
     2
1001
ACAD
1010
0.0
1020
0.0
1030
0.0
  0
SPLINE
  5
3D852
102
{ACAD_REACTORS
330
3D851
102
}
330
2
100
AcDbEntity
  8
Layer 1
100
AcDbSpline
210
0.0
220
0.0
230
1.0
 70
    24
 71
     3
 72
     8
 73
     4
 74
     0
 42
0.000000001
 43
0.0000000001
 40
0.0
 40
0.0
 40
0.0
 40
0.0
 40
1.0
 40
1.0
 40
1.0
 40
1.0
 10
189.7873924134504
 20
16.30407806181323
 30
0.0
 10
189.7873924134504
 20
16.30407806181323
 30
0.0
 10
188.3706084452379
 20
16.30407806181323
 30
0.0
 10
188.3706084452379
 20
16.30407806181323
 30
0.0
  0
SPLINE
  5
3D853
102
{ACAD_REACTORS
330
3D851
102
}
330
2
100
AcDbEntity
  8
Layer 1
100
AcDbSpline
210
0.0
220
0.0
230
1.0
 70
    24
 71
     3
 72
     8
 73
     4
 74
     0
 42
0.000000001
 43
0.0000000001
 40
1.0
 40
1.0
 40
1.0
 40
1.0
 40
2.0
 40
2.0
 40
2.0
 40
2.0
 10
188.3706084452379
 20
16.30407806181323
 30
0.0
 10
188.3706084452379
 20
16.30407806181323
 30
0.0
 10
189.014730617529
 20
19.25376886910951
 30
0.0
 10
189.014730617529
 20
19.25376886910951
 30
0.0
  0
SPLINE
  5
3D854
102
{ACAD_REACTORS
330
3D851
102
}
330
2
100
AcDbEntity
  8
Layer 1
100
AcDbSpline
210
0.0
220
0.0
230
1.0
 70
    24
 71
     3
 72
     8
 73
     4
 74
     0
 42
0.000000001
 43
0.0000000001
 40
2.0
 40
2.0
 40
2.0
 40
2.0
 40
3.0
 40
3.0
 40
3.0
 40
3.0
 10
189.014730617529
 20
19.25376886910951
 30
0.0
 10
189.014730617529
 20
19.25376886910951
 30
0.0
 10
187.1083968096594
 20
16.30407806181323
 30
0.0
 10
187.1083968096594
 20
16.30407806181323
 30
0.0
  0
SPLINE
  5
3D855
102
{ACAD_REACTORS
330
3D851
102
}
330
2
100
AcDbEntity
  8
Layer 1
100
AcDbSpline
210
0.0
220
0.0
230
1.0
 70
    24
 71
     3
 72
     8
 73
     4
 74
     0
 42
0.000000001
 43
0.0000000001
 40
3.0
 40
3.0
 40
3.0
 40
3.0
 40
4.0
 40
4.0
 40
4.0
 40
4.0
 10
187.1083968096594
 20
16.30407806181323
 30
0.0
 10
187.1083968096594
 20
16.30407806181323
 30
0.0
 10
186.6575219048462
 20
16.30407806181323
 30
0.0
 10
186.6575219048462
 20
16.30407806181323
 30
0.0
  0
SPLINE
  5
3D856
102
{ACAD_REACTORS
330
3D851
102
}
330
2
100
AcDbEntity
  8
Layer 1
100
AcDbSpline
210
0.0
220
0.0
230
1.0
 70
    24
 71
     3
 72
     8
 73
     4
 74
     0
 42
0.000000001
 43
0.0000000001
 40
4.0
 40
4.0
 40
4.0
 40
4.0
 40
5.0
 40
5.0
 40
5.0
 40
5.0
 10
186.6575219048462
 20
16.30407806181323
 30
0.0
 10
186.6575219048462
 20
16.30407806181323
 30
0.0
 10
186.3161986040878
 20
19.31807615603367
 30
0.0
 10
186.3161986040878
 20
19.31807615603367
 30
0.0
  0
SPLINE
  5
3D857
102
{ACAD_REACTORS
330
3D851
102
}
330
2
100
AcDbEntity
  8
Layer 1
100
AcDbSpline
210
0.0
220
0.0
230
1.0
 70
    24
 71
     3
 72
     8
 73
     4
 74
     0
 42
0.000000001
 43
0.0000000001
 40
5.0
 40
5.0
 40
5.0
 40
5.0
 40
6.0
 40
6.0
 40
6.0
 40
6.0
 10
186.3161986040878
 20
19.31807615603367
 30
0.0
 10
186.3161986040878
 20
19.31807615603367
 30
0.0
 10
185.3822439157376
 20
16.30407806181323
 30
0.0
 10
185.3822439157376
 20
16.30407806181323
 30
0.0
  0
SPLINE
  5
3D858
102
{ACAD_REACTORS
330
3D851
102
}
330
2
100
AcDbEntity
  8
Layer 1
100
AcDbSpline
210
0.0
220
0.0
230
1.0
 70
    24
 71
     3
 72
     8
 73
     4
 74
     0
 42
0.000000001
 43
0.0000000001
 40
6.0
 40
6.0
 40
6.0
 40
6.0
 40
7.0
 40
7.0
 40
7.0
 40
7.0
 10
185.3822439157376
 20
16.30407806181323
 30
0.0
 10
185.3822439157376
 20
16.30407806181323
 30
0.0
 10
183.9976635228218
 20
16.30407806181323
 30
0.0
 10
183.9976635228218
 20
16.30407806181323
 30
0.0
  0
SPLINE
  5
3D859
102
{ACAD_REACTORS
330
3D851
102
}
330
2
100
AcDbEntity
  8
Layer 1
100
AcDbSpline
210
0.0
220
0.0
230
1.0
 70
    24
 71
     3
 72
     8
 73
     4
 74
     0
 42
0.000000001
 43
0.0000000001
 40
7.0
 40
7.0
 40
7.0
 40
7.0
 40
8.0
 40
8.0
 40
8.0
 40
8.0
 10
183.9976635228218
 20
16.30407806181323
 30
0.0
 10
183.9976635228218
 20
16.30407806181323
 30
0.0
 10
185.6526892920154
 20
20.85086087794934
 30
0.0
 10
185.6526892920154
 20
20.85086087794934
 30
0.0
  0
SPLINE
  5
3D85A
102
{ACAD_REACTORS
330
3D851
102
}
330
2
100
AcDbEntity
  8
Layer 1
100
AcDbSpline
210
0.0
220
0.0
230
1.0
 70
    24
 71
     3
 72
     8
 73
     4
 74
     0
 42
0.000000001
 43
0.0000000001
 40
8.0
 40
8.0
 40
8.0
 40
8.0
 40
9.0
 40
9.0
 40
9.0
 40
9.0
 10
185.6526892920154
 20
20.85086087794934
 30
0.0
 10
185.6526892920154
 20
20.85086087794934
 30
0.0
 10
187.1535424591758
 20
20.85086087794934
 30
0.0
 10
187.1535424591758
 20
20.85086087794934
 30
0.0
  0
SPLINE
  5
3D85B
102
{ACAD_REACTORS
330
3D851
102
}
330
2
100
AcDbEntity
  8
Layer 1
100
AcDbSpline
210
0.0
220
0.0
230
1.0
 70
    24
 71
     3
 72
     8
 73
     4
 74
     0
 42
0.000000001
 43
0.0000000001
 40
9.0
 40
9.0
 40
9.0
 40
9.0
 40
10.0
 40
10.0
 40
10.0
 40
10.0
 10
187.1535424591758
 20
20.85086087794934
 30
0.0
 10
187.1535424591758
 20
20.85086087794934
 30
0.0
 10
187.4302080617452
 20
18.35216771506252
 30
0.0
 10
187.4302080617452
 20
18.35216771506252
 30
0.0
  0
SPLINE
  5
3D85C
102
{ACAD_REACTORS
330
3D851
102
}
330
2
100
AcDbEntity
  8
Layer 1
100
AcDbSpline
210
0.0
220
0.0
230
1.0
 70
    24
 71
     3
 72
     8
 73
     4
 74
     0
 42
0.000000001
 43
0.0000000001
 40
10.0
 40
10.0
 40
10.0
 40
10.0
 40
11.0
 40
11.0
 40
11.0
 40
11.0
 10
187.4302080617452
 20
18.35216771506252
 30
0.0
 10
187.4302080617452
 20
18.35216771506252
 30
0.0
 10
189.0016642962152
 20
20.85086087794934
 30
0.0
 10
189.0016642962152
 20
20.85086087794934
 30
0.0
  0
SPLINE
  5
3D85D
102
{ACAD_REACTORS
330
3D851
102
}
330
2
100
AcDbEntity
  8
Layer 1
100
AcDbSpline
210
0.0
220
0.0
230
1.0
 70
    24
 71
     3
 72
     8
 73
     4
 74
     0
 42
0.000000001
 43
0.0000000001
 40
11.0
 40
11.0
 40
11.0
 40
11.0
 40
12.0
 40
12.0
 40
12.0
 40
12.0
 10
189.0016642962152
 20
20.85086087794934
 30
0.0
 10
189.0016642962152
 20
20.85086087794934
 30
0.0
 10
190.528250333593
 20
20.85086087794934
 30
0.0
 10
190.528250333593
 20
20.85086087794934
 30
0.0
  0
SPLINE
  5
3D85E
102
{ACAD_REACTORS
330
3D851
102
}
330
2
100
AcDbEntity
  8
Layer 1
100
AcDbSpline
210
0.0
220
0.0
230
1.0
 70
    24
 71
     3
 72
     8
 73
     4
 74
     0
 42
0.000000001
 43
0.0000000001
 40
12.0
 40
12.0
 40
12.0
 40
12.0
 40
13.0
 40
13.0
 40
13.0
 40
13.0
 10
190.528250333593
 20
20.85086087794934
 30
0.0
 10
190.528250333593
 20
20.85086087794934
 30
0.0
 10
189.7873924134504
 20
16.30407806181323
 30
0.0
 10
189.7873924134504
 20
16.30407806181323
 30
0.0
  0
HATCH
  5
3D85F
330
2
100
AcDbEntity
  8
0
  6
Continuous
 62
     0
100
AcDbHatch
 10
0.0
 20
0.0
 30
0.0
210
0.0
220
0.0
230
1.0
  2
SOLID
 70
     1
 71
     0
 91
        1
 92
        5
 93
        1
 72
     4
 94
        3
 73
     0
 74
     0
 95
       41
 96
       37
 40
0.0
 40
0.0
 40
0.0
 40
0.0
 40
1.0
 40
1.0
 40
1.0
 40
2.0
 40
2.0
 40
2.0
 40
3.0
 40
3.0
 40
3.0
 40
4.0
 40
4.0
 40
4.0
 40
5.0
 40
5.0
 40
5.0
 40
6.0
 40
6.0
 40
6.0
 40
7.0
 40
7.0
 40
7.0
 40
8.0
 40
8.0
 40
8.0
 40
9.0
 40
9.0
 40
9.0
 40
10.0
 40
10.0
 40
10.0
 40
11.0
 40
11.0
 40
11.0
 40
12.0
 40
12.0
 40
12.0
 40
12.0
 10
191.403643894795
 20
16.30407806181323
 10
191.403643894795
 20
16.30407806181323
 10
189.9288984247707
 20
16.30407806181323
 10
189.9288984247707
 20
16.30407806181323
 10
189.9288984247707
 20
16.30407806181323
 10
192.8784900780259
 20
20.85720386319997
 10
192.8784900780259
 20
20.85720386319997
 10
192.8784900780259
 20
20.85720386319997
 10
194.3984805346302
 20
20.85720386319997
 10
194.3984805346302
 20
20.85720386319997
 10
194.3984805346302
 20
20.85720386319997
 10
194.7399279258143
 20
16.30407806181323
 10
194.7399279258143
 20
16.30407806181323
 10
194.7399279258143
 20
16.30407806181323
 10
193.3680391381002
 20
16.30407806181323
 10
193.3680391381002
 20
16.30407806181323
 10
193.3680391381002
 20
16.30407806181323
 10
193.3228941235426
 20
17.0383403627842
 10
193.3228941235426
 20
17.0383403627842
 10
193.3228941235426
 20
17.0383403627842
 10
192.3284296495665
 20
17.0383403627842
 10
192.3284296495665
 20
17.0383403627842
 10
192.3284296495665
 20
17.0383403627842
 10
192.8221267346122
 20
17.98483669732943
 10
192.8221267346122
 20
17.98483669732943
 10
192.8221267346122
 20
17.98483669732943
 10
193.2778740260145
 20
17.98483669732943
 10
193.2778740260145
 20
17.98483669732943
 10
193.2778740260145
 20
17.98483669732943
 10
193.2198125905786
 20
19.31807615603367
 10
193.2198125905786
 20
19.31807615603367
 10
193.2198125905786
 20
19.31807615603367
 10
191.4109647752494
 20
16.31432125825415
 10
191.4109647752494
 20
16.31432125825415
 10
191.4109647752494
 20
16.31432125825415
 10
191.403643894795
 20
16.30407806181323
 10
191.403643894795
 20
16.30407806181323
 97
        0
 97
        0
 75
     1
 76
     1
 47
0.0269459378258844
 98
        1
 10
194.1750759067004
 20
18.1838382318563
450
        0
451
        0
460
0.0
461
0.0
452
        0
462
1.0
453
        2
463
0.0
 63
     5
421
      255
463
1.0
 63
     2
421
 16776960
470
LINEAR
1001
GRADIENTCOLOR1ACI
1070
     5
1001
GRADIENTCOLOR2ACI
1070
     2
1001
ACAD
1010
0.0
1020
0.0
1030
0.0
  0
SPLINE
  5
3D860
330
2
100
AcDbEntity
  8
Layer 1
100
AcDbSpline
210
0.0
220
0.0
230
1.0
 70
    11
 71
     3
 72
    41
 73
    37
 74
     0
 42
0.000000001
 43
0.0000000001
 40
0.0
 40
0.0
 40
0.0
 40
0.0
 40
1.0
 40
1.0
 40
1.0
 40
2.0
 40
2.0
 40
2.0
 40
3.0
 40
3.0
 40
3.0
 40
4.0
 40
4.0
 40
4.0
 40
5.0
 40
5.0
 40
5.0
 40
6.0
 40
6.0
 40
6.0
 40
7.0
 40
7.0
 40
7.0
 40
8.0
 40
8.0
 40
8.0
 40
9.0
 40
9.0
 40
9.0
 40
10.0
 40
10.0
 40
10.0
 40
11.0
 40
11.0
 40
11.0
 40
12.0
 40
12.0
 40
12.0
 40
12.0
 10
191.403643894795
 20
16.30407806181323
 30
0.0
 10
191.403643894795
 20
16.30407806181323
 30
0.0
 10
189.9288984247707
 20
16.30407806181323
 30
0.0
 10
189.9288984247707
 20
16.30407806181323
 30
0.0
 10
189.9288984247707
 20
16.30407806181323
 30
0.0
 10
192.8784900780259
 20
20.85720386319997
 30
0.0
 10
192.8784900780259
 20
20.85720386319997
 30
0.0
 10
192.8784900780259
 20
20.85720386319997
 30
0.0
 10
194.3984805346302
 20
20.85720386319997
 30
0.0
 10
194.3984805346302
 20
20.85720386319997
 30
0.0
 10
194.3984805346302
 20
20.85720386319997
 30
0.0
 10
194.7399279258143
 20
16.30407806181323
 30
0.0
 10
194.7399279258143
 20
16.30407806181323
 30
0.0
 10
194.7399279258143
 20
16.30407806181323
 30
0.0
 10
193.3680391381002
 20
16.30407806181323
 30
0.0
 10
193.3680391381002
 20
16.30407806181323
 30
0.0
 10
193.3680391381002
 20
16.30407806181323
 30
0.0
 10
193.3228941235426
 20
17.0383403627842
 30
0.0
 10
193.3228941235426
 20
17.0383403627842
 30
0.0
 10
193.3228941235426
 20
17.0383403627842
 30
0.0
 10
192.3284296495665
 20
17.0383403627842
 30
0.0
 10
192.3284296495665
 20
17.0383403627842
 30
0.0
 10
192.3284296495665
 20
17.0383403627842
 30
0.0
 10
192.8221267346122
 20
17.98483669732943
 30
0.0
 10
192.8221267346122
 20
17.98483669732943
 30
0.0
 10
192.8221267346122
 20
17.98483669732943
 30
0.0
 10
193.2778740260145
 20
17.98483669732943
 30
0.0
 10
193.2778740260145
 20
17.98483669732943
 30
0.0
 10
193.2778740260145
 20
17.98483669732943
 30
0.0
 10
193.2198125905786
 20
19.31807615603367
 30
0.0
 10
193.2198125905786
 20
19.31807615603367
 30
0.0
 10
193.2198125905786
 20
19.31807615603367
 30
0.0
 10
191.4109647752494
 20
16.31432125825415
 30
0.0
 10
191.4109647752494
 20
16.31432125825415
 30
0.0
 10
191.4109647752494
 20
16.31432125825415
 30
0.0
 10
191.403643894795
 20
16.30407806181323
 30
0.0
 10
191.403643894795
 20
16.30407806181323
 30
0.0
  0
HATCH
  5
3D861
330
2
100
AcDbEntity
  8
0
  6
Continuous
 62
     0
100
AcDbHatch
 10
0.0
 20
0.0
 30
0.0
210
0.0
220
0.0
230
1.0
  2
SOLID
 70
     1
 71
     1
 91
        1
 92
        5
 93
        1
 72
     4
 94
        3
 73
     0
 74
     0
 95
       17
 96
       13
 40
0.0
 40
0.0
 40
0.0
 40
0.0
 40
1.0
 40
1.0
 40
1.0
 40
2.0
 40
2.0
 40
2.0
 40
3.0
 40
3.0
 40
3.0
 40
4.0
 40
4.0
 40
4.0
 40
4.0
 10
201.018833445471
 20
16.30407806181323
 10
201.018833445471
 20
16.30407806181323
 10
199.614864979287
 20
16.30407806181323
 10
199.614864979287
 20
16.30407806181323
 10
199.614864979287
 20
16.30407806181323
 10
200.8321814343675
 20
20.85086087794934
 10
200.8321814343675
 20
20.85086087794934
 10
200.8321814343675
 20
20.85086087794934
 10
202.2360489817017
 20
20.85086087794934
 10
202.2360489817017
 20
20.85086087794934
 10
202.2360489817017
 20
20.85086087794934
 10
201.018833445471
 20
16.30407806181323
 10
201.018833445471
 20
16.30407806181323
 97
        0
 97
        1
330
3D862
 75
     1
 76
     1
 47
0.0269459378258844
 98
        1
 10
200.4350977014289
 20
17.54610844144027
450
        0
451
        0
460
0.0
461
0.0
452
        0
462
1.0
453
        2
463
0.0
 63
     5
421
      255
463
1.0
 63
     2
421
 16776960
470
LINEAR
1001
GRADIENTCOLOR1ACI
1070
     5
1001
GRADIENTCOLOR2ACI
1070
     2
1001
ACAD
1010
0.0
1020
0.0
1030
0.0
  0
SPLINE
  5
3D862
102
{ACAD_REACTORS
330
3D861
102
}
330
2
100
AcDbEntity
  8
Layer 1
100
AcDbSpline
210
0.0
220
0.0
230
1.0
 70
    11
 71
     3
 72
    17
 73
    13
 74
     0
 42
0.000000001
 43
0.0000000001
 40
0.0
 40
0.0
 40
0.0
 40
0.0
 40
1.0
 40
1.0
 40
1.0
 40
2.0
 40
2.0
 40
2.0
 40
3.0
 40
3.0
 40
3.0
 40
4.0
 40
4.0
 40
4.0
 40
4.0
 10
201.018833445471
 20
16.30407806181323
 30
0.0
 10
201.018833445471
 20
16.30407806181323
 30
0.0
 10
199.614864979287
 20
16.30407806181323
 30
0.0
 10
199.614864979287
 20
16.30407806181323
 30
0.0
 10
199.614864979287
 20
16.30407806181323
 30
0.0
 10
200.8321814343675
 20
20.85086087794934
 30
0.0
 10
200.8321814343675
 20
20.85086087794934
 30
0.0
 10
200.8321814343675
 20
20.85086087794934
 30
0.0
 10
202.2360489817017
 20
20.85086087794934
 30
0.0
 10
202.2360489817017
 20
20.85086087794934
 30
0.0
 10
202.2360489817017
 20
20.85086087794934
 30
0.0
 10
201.018833445471
 20
16.30407806181323
 30
0.0
 10
201.018833445471
 20
16.30407806181323
 30
0.0
  0
HATCH
  5
3D863
330
2
100
AcDbEntity
  8
0
  6
Continuous
 62
     0
100
AcDbHatch
 10
0.0
 20
0.0
 30
0.0
210
0.0
220
0.0
230
1.0
  2
SOLID
 70
     1
 71
     1
 91
        1
 92
        5
 93
       14
 72
     4
 94
        3
 73
     0
 74
     0
 95
        8
 96
        4
 40
11.0
 40
11.0
 40
11.0
 40
11.0
 40
12.0
 40
12.0
 40
12.0
 40
12.0
 10
199.1975431054571
 20
16.24284373382131
 10
199.1975431054571
 20
16.24284373382131
 10
198.5500222507405
 20
18.17600971968497
 10
198.5500222507405
 20
18.17600971968497
 97
        0
 72
     4
 94
        3
 73
     0
 74
     0
 95
        8
 96
        4
 40
12.0
 40
12.0
 40
12.0
 40
12.0
 40
13.0
 40
13.0
 40
13.0
 40
13.0
 10
198.5500222507405
 20
18.17600971968497
 10
198.7526376730227
 20
18.23761879876616
 10
198.95367914073
 20
18.32813367853539
 10
199.1315360077124
 20
18.46401842351602
 97
        0
 72
     4
 94
        3
 73
     0
 74
     0
 95
        8
 96
        4
 40
13.0
 40
13.0
 40
13.0
 40
13.0
 40
14.0
 40
14.0
 40
14.0
 40
14.0
 10
199.1315360077124
 20
18.46401842351602
 10
199.5244750165476
 20
18.76679232026548
 10
199.7306380824752
 20
19.19840564151678
 10
199.7306380824752
 20
19.62327344316061
 97
        0
 72
     4
 94
        3
 73
     0
 74
     0
 95
        8
 96
        4
 40
0.0
 40
0.0
 40
0.0
 40
0.0
 40
1.0
 40
1.0
 40
1.0
 40
1.0
 10
199.7306380824752
 20
19.62327344316061
 10
199.7306380824752
 20
20.53771606786764
 10
198.9256227758442
 20
20.85977715401313
 10
198.223689916791
 20
20.85977715401313
 97
        0
 72
     4
 94
        3
 73
     0
 74
     0
 95
        8
 96
        4
 40
1.0
 40
1.0
 40
1.0
 40
1.0
 40
2.0
 40
2.0
 40
2.0
 40
2.0
 10
198.223689916791
 20
20.85977715401313
 10
198.223689916791
 20
20.85977715401313
 10
196.2142745251952
 20
20.85977715401313
 10
196.2142745251952
 20
20.85977715401313
 97
        0
 72
     4
 94
        3
 73
     0
 74
     0
 95
        8
 96
        4
 40
2.0
 40
2.0
 40
2.0
 40
2.0
 40
3.0
 40
3.0
 40
3.0
 40
3.0
 10
196.2142745251952
 20
20.85977715401313
 10
196.2142745251952
 20
20.85977715401313
 10
194.990611421151
 20
16.31287490593109
 10
194.990611421151
 20
16.31287490593109
 97
        0
 72
     4
 94
        3
 73
     0
 74
     0
 95
        8
 96
        4
 40
3.0
 40
3.0
 40
3.0
 40
3.0
 40
4.0
 40
4.0
 40
4.0
 40
4.0
 10
194.990611421151
 20
16.31287490593109
 10
194.990611421151
 20
16.31287490593109
 10
196.4335030485848
 20
16.31287490593109
 10
196.4335030485848
 20
16.31287490593109
 97
        0
 72
     4
 94
        3
 73
     0
 74
     0
 95
        8
 96
        4
 40
4.0
 40
4.0
 40
4.0
 40
4.0
 40
5.0
 40
5.0
 40
5.0
 40
5.0
 10
196.4335030485848
 20
16.31287490593109
 10
196.4335030485848
 20
16.31287490593109
 10
197.3798994495063
 20
19.84212807931256
 10
197.3798994495063
 20
19.84212807931256
 97
        0
 72
     4
 94
        3
 73
     0
 74
     0
 95
        8
 96
        4
 40
5.0
 40
5.0
 40
5.0
 40
5.0
 40
6.0
 40
6.0
 40
6.0
 40
6.0
 10
197.3798994495063
 20
19.84212807931256
 10
197.3798994495063
 20
19.84212807931256
 10
197.8050170852095
 20
19.84212807931256
 10
197.8050170852095
 20
19.84212807931256
 97
        0
 72
     4
 94
        3
 73
     0
 74
     0
 95
        8
 96
        4
 40
6.0
 40
6.0
 40
6.0
 40
6.0
 40
7.0
 40
7.0
 40
7.0
 40
7.0
 10
197.8050170852095
 20
19.84212807931256
 10
198.0560753316356
 20
19.84212807931256
 10
198.3138541142628
 20
19.78419156090656
 10
198.3138541142628
 20
19.4751967960747
 97
        0
 72
     4
 94
        3
 73
     0
 74
     0
 95
        8
 96
        4
 40
7.0
 40
7.0
 40
7.0
 40
7.0
 40
8.0
 40
8.0
 40
8.0
 40
8.0
 10
198.3138541142628
 20
19.4751967960747
 10
198.3138541142628
 20
19.30783295959273
 10
198.1851396067908
 20
19.03713775608743
 10
197.7600219710876
 20
19.05017909399508
 97
        0
 72
     4
 94
        3
 73
     0
 74
     0
 95
        8
 96
        4
 40
8.0
 40
8.0
 40
8.0
 40
8.0
 40
9.0
 40
9.0
 40
9.0
 40
9.0
 10
197.7600219710876
 20
19.05017909399508
 10
197.7600219710876
 20
19.05017909399508
 10
197.4877278296012
 20
18.05341614667159
 10
197.4877278296012
 20
18.05341614667159
 97
        0
 72
     4
 94
        3
 73
     0
 74
     0
 95
        8
 96
        4
 40
9.0
 40
9.0
 40
9.0
 40
9.0
 40
10.0
 40
10.0
 40
10.0
 40
10.0
 10
197.4877278296012
 20
18.05341614667159
 10
197.4877278296012
 20
18.05341614667159
 10
198.0077824079275
 20
16.24284373382131
 10
198.0077824079275
 20
16.24284373382131
 97
        0
 72
     4
 94
        3
 73
     0
 74
     0
 95
        8
 96
        4
 40
10.0
 40
10.0
 40
10.0
 40
10.0
 40
11.0
 40
11.0
 40
11.0
 40
11.0
 10
198.0077824079275
 20
16.24284373382131
 10
198.0077824079275
 20
16.24284373382131
 10
199.1975431054571
 20
16.24284373382131
 10
199.1975431054571
 20
16.24284373382131
 97
        0
 97
       13
330
3D86E
330
3D86F
330
3D870
330
3D864
330
3D865
330
3D866
330
3D867
330
3D868
330
3D869
330
3D86A
330
3D86B
330
3D86C
330
3D86D
 75
     1
 76
     1
 47
0.0269459378258844
 98
        1
 10
198.2319354928003
 20
17.94089336179978
450
        0
451
        0
460
0.0
461
0.0
452
        0
462
1.0
453
        2
463
0.0
 63
     5
421
      255
463
1.0
 63
     2
421
 16776960
470
LINEAR
1001
GRADIENTCOLOR1ACI
1070
     5
1001
GRADIENTCOLOR2ACI
1070
     2
1001
ACAD
1010
0.0
1020
0.0
1030
0.0
  0
SPLINE
  5
3D864
102
{ACAD_REACTORS
330
3D863
102
}
330
2
100
AcDbEntity
  8
Layer 1
100
AcDbSpline
210
0.0
220
0.0
230
1.0
 70
     8
 71
     3
 72
     8
 73
     4
 74
     0
 42
0.000000001
 43
0.0000000001
 40
0.0
 40
0.0
 40
0.0
 40
0.0
 40
1.0
 40
1.0
 40
1.0
 40
1.0
 10
199.7306380824752
 20
19.62327344316061
 30
0.0
 10
199.7306380824752
 20
20.53771606786764
 30
0.0
 10
198.9256227758442
 20
20.85977715401313
 30
0.0
 10
198.223689916791
 20
20.85977715401313
 30
0.0
  0
SPLINE
  5
3D865
102
{ACAD_REACTORS
330
3D863
102
}
330
2
100
AcDbEntity
  8
Layer 1
100
AcDbSpline
210
0.0
220
0.0
230
1.0
 70
    24
 71
     3
 72
     8
 73
     4
 74
     0
 42
0.000000001
 43
0.0000000001
 40
1.0
 40
1.0
 40
1.0
 40
1.0
 40
2.0
 40
2.0
 40
2.0
 40
2.0
 10
198.223689916791
 20
20.85977715401313
 30
0.0
 10
198.223689916791
 20
20.85977715401313
 30
0.0
 10
196.2142745251952
 20
20.85977715401313
 30
0.0
 10
196.2142745251952
 20
20.85977715401313
 30
0.0
  0
SPLINE
  5
3D866
102
{ACAD_REACTORS
330
3D863
102
}
330
2
100
AcDbEntity
  8
Layer 1
100
AcDbSpline
210
0.0
220
0.0
230
1.0
 70
    24
 71
     3
 72
     8
 73
     4
 74
     0
 42
0.000000001
 43
0.0000000001
 40
2.0
 40
2.0
 40
2.0
 40
2.0
 40
3.0
 40
3.0
 40
3.0
 40
3.0
 10
196.2142745251952
 20
20.85977715401313
 30
0.0
 10
196.2142745251952
 20
20.85977715401313
 30
0.0
 10
194.990611421151
 20
16.31287490593109
 30
0.0
 10
194.990611421151
 20
16.31287490593109
 30
0.0
  0
SPLINE
  5
3D867
102
{ACAD_REACTORS
330
3D863
102
}
330
2
100
AcDbEntity
  8
Layer 1
100
AcDbSpline
210
0.0
220
0.0
230
1.0
 70
    24
 71
     3
 72
     8
 73
     4
 74
     0
 42
0.000000001
 43
0.0000000001
 40
3.0
 40
3.0
 40
3.0
 40
3.0
 40
4.0
 40
4.0
 40
4.0
 40
4.0
 10
194.990611421151
 20
16.31287490593109
 30
0.0
 10
194.990611421151
 20
16.31287490593109
 30
0.0
 10
196.4335030485848
 20
16.31287490593109
 30
0.0
 10
196.4335030485848
 20
16.31287490593109
 30
0.0
  0
SPLINE
  5
3D868
102
{ACAD_REACTORS
330
3D863
102
}
330
2
100
AcDbEntity
  8
Layer 1
100
AcDbSpline
210
0.0
220
0.0
230
1.0
 70
    24
 71
     3
 72
     8
 73
     4
 74
     0
 42
0.000000001
 43
0.0000000001
 40
4.0
 40
4.0
 40
4.0
 40
4.0
 40
5.0
 40
5.0
 40
5.0
 40
5.0
 10
196.4335030485848
 20
16.31287490593109
 30
0.0
 10
196.4335030485848
 20
16.31287490593109
 30
0.0
 10
197.3798994495063
 20
19.84212807931256
 30
0.0
 10
197.3798994495063
 20
19.84212807931256
 30
0.0
  0
SPLINE
  5
3D869
102
{ACAD_REACTORS
330
3D863
102
}
330
2
100
AcDbEntity
  8
Layer 1
100
AcDbSpline
210
0.0
220
0.0
230
1.0
 70
    24
 71
     3
 72
     8
 73
     4
 74
     0
 42
0.000000001
 43
0.0000000001
 40
5.0
 40
5.0
 40
5.0
 40
5.0
 40
6.0
 40
6.0
 40
6.0
 40
6.0
 10
197.3798994495063
 20
19.84212807931256
 30
0.0
 10
197.3798994495063
 20
19.84212807931256
 30
0.0
 10
197.8050170852095
 20
19.84212807931256
 30
0.0
 10
197.8050170852095
 20
19.84212807931256
 30
0.0
  0
SPLINE
  5
3D86A
102
{ACAD_REACTORS
330
3D863
102
}
330
2
100
AcDbEntity
  8
Layer 1
100
AcDbSpline
210
0.0
220
0.0
230
1.0
 70
     8
 71
     3
 72
    11
 73
     7
 74
     0
 42
0.000000001
 43
0.0000000001
 40
6.0
 40
6.0
 40
6.0
 40
6.0
 40
7.0
 40
7.0
 40
7.0
 40
8.0
 40
8.0
 40
8.0
 40
8.0
 10
197.8050170852095
 20
19.84212807931256
 30
0.0
 10
198.0560753316356
 20
19.84212807931256
 30
0.0
 10
198.3138541142628
 20
19.78419156090656
 30
0.0
 10
198.3138541142628
 20
19.4751967960747
 30
0.0
 10
198.3138541142628
 20
19.30783295959273
 30
0.0
 10
198.1851396067908
 20
19.03713775608743
 30
0.0
 10
197.7600219710876
 20
19.05017909399508
 30
0.0
  0
SPLINE
  5
3D86B
102
{ACAD_REACTORS
330
3D863
102
}
330
2
100
AcDbEntity
  8
Layer 1
100
AcDbSpline
210
0.0
220
0.0
230
1.0
 70
    24
 71
     3
 72
     8
 73
     4
 74
     0
 42
0.000000001
 43
0.0000000001
 40
8.0
 40
8.0
 40
8.0
 40
8.0
 40
9.0
 40
9.0
 40
9.0
 40
9.0
 10
197.7600219710876
 20
19.05017909399508
 30
0.0
 10
197.7600219710876
 20
19.05017909399508
 30
0.0
 10
197.4877278296012
 20
18.05341614667159
 30
0.0
 10
197.4877278296012
 20
18.05341614667159
 30
0.0
  0
SPLINE
  5
3D86C
102
{ACAD_REACTORS
330
3D863
102
}
330
2
100
AcDbEntity
  8
Layer 1
100
AcDbSpline
210
0.0
220
0.0
230
1.0
 70
    24
 71
     3
 72
     8
 73
     4
 74
     0
 42
0.000000001
 43
0.0000000001
 40
9.0
 40
9.0
 40
9.0
 40
9.0
 40
10.0
 40
10.0
 40
10.0
 40
10.0
 10
197.4877278296012
 20
18.05341614667159
 30
0.0
 10
197.4877278296012
 20
18.05341614667159
 30
0.0
 10
198.0077824079275
 20
16.24284373382131
 30
0.0
 10
198.0077824079275
 20
16.24284373382131
 30
0.0
  0
SPLINE
  5
3D86D
102
{ACAD_REACTORS
330
3D863
102
}
330
2
100
AcDbEntity
  8
Layer 1
100
AcDbSpline
210
0.0
220
0.0
230
1.0
 70
    24
 71
     3
 72
     8
 73
     4
 74
     0
 42
0.000000001
 43
0.0000000001
 40
10.0
 40
10.0
 40
10.0
 40
10.0
 40
11.0
 40
11.0
 40
11.0
 40
11.0
 10
198.0077824079275
 20
16.24284373382131
 30
0.0
 10
198.0077824079275
 20
16.24284373382131
 30
0.0
 10
199.1975431054571
 20
16.24284373382131
 30
0.0
 10
199.1975431054571
 20
16.24284373382131
 30
0.0
  0
SPLINE
  5
3D86E
102
{ACAD_REACTORS
330
3D863
102
}
330
2
100
AcDbEntity
  8
Layer 1
100
AcDbSpline
210
0.0
220
0.0
230
1.0
 70
    24
 71
     3
 72
     8
 73
     4
 74
     0
 42
0.000000001
 43
0.0000000001
 40
11.0
 40
11.0
 40
11.0
 40
11.0
 40
12.0
 40
12.0
 40
12.0
 40
12.0
 10
199.1975431054571
 20
16.24284373382131
 30
0.0
 10
199.1975431054571
 20
16.24284373382131
 30
0.0
 10
198.5500222507405
 20
18.17600971968497
 30
0.0
 10
198.5500222507405
 20
18.17600971968497
 30
0.0
  0
SPLINE
  5
3D86F
102
{ACAD_REACTORS
330
3D863
102
}
330
2
100
AcDbEntity
  8
Layer 1
100
AcDbSpline
210
0.0
220
0.0
230
1.0
 70
     8
 71
     3
 72
     8
 73
     4
 74
     0
 42
0.000000001
 43
0.0000000001
 40
12.0
 40
12.0
 40
12.0
 40
12.0
 40
13.0
 40
13.0
 40
13.0
 40
13.0
 10
198.5500222507405
 20
18.17600971968497
 30
0.0
 10
198.7526376730227
 20
18.23761879876616
 30
0.0
 10
198.95367914073
 20
18.32813367853539
 30
0.0
 10
199.1315360077124
 20
18.46401842351602
 30
0.0
  0
SPLINE
  5
3D870
102
{ACAD_REACTORS
330
3D863
102
}
330
2
100
AcDbEntity
  8
Layer 1
100
AcDbSpline
210
0.0
220
0.0
230
1.0
 70
     8
 71
     3
 72
     8
 73
     4
 74
     0
 42
0.000000001
 43
0.0000000001
 40
13.0
 40
13.0
 40
13.0
 40
13.0
 40
14.0
 40
14.0
 40
14.0
 40
14.0
 10
199.1315360077124
 20
18.46401842351602
 30
0.0
 10
199.5244750165476
 20
18.76679232026548
 30
0.0
 10
199.7306380824752
 20
19.19840564151678
 30
0.0
 10
199.7306380824752
 20
19.62327344316061
 30
0.0
  0
LWPOLYLINE
  5
3D871
102
{ACAD_REACTORS
330
3D872
102
}
330
2
100
AcDbEntity
  8
Layer 1
 62
   103
100
AcDbPolyline
 90
        8
 70
     1
 43
0.0
 10
218.3156938375994
 20
22.33242401793743
 10
196.7102942031426
 20
22.33327345373985
 10
196.3880082663437
 20
21.27320255573034
 10
203.8753351633356
 20
21.27283061516251
 10
202.4424368982831
 20
16.30407806181323
 10
203.8465542796772
 20
16.30407806181323
 10
205.2791777272639
 20
21.27283061516251
 10
217.9918103768184
 20
21.2722032194922
  0
HATCH
  5
3D872
330
2
100
AcDbEntity
  8
0
  6
Continuous
 62
    93
100
AcDbHatch
 10
0.0
 20
0.0
 30
0.0
210
0.0
220
0.0
230
1.0
  2
SOLID
 70
     1
 71
     1
 91
        1
 92
        7
 72
     0
 73
     1
 93
        8
 10
196.7102942031426
 20
22.33327345373985
 10
196.3880082663437
 20
21.27320255573034
 10
203.8753351633356
 20
21.27283061516251
 10
202.4424368982831
 20
16.30407806181323
 10
203.8465542796772
 20
16.30407806181323
 10
205.2791777272639
 20
21.27283061516251
 10
217.9918103768184
 20
21.2722032194922
 10
218.3156938375994
 20
22.33242401793743
 97
        1
330
3D871
 75
     1
 76
     1
 47
0.0428322549537331
 98
        1
 10
206.2176429821863
 20
21.8094708050957
450
        0
451
        0
460
0.0
461
0.0
452
        0
462
1.0
453
        2
463
0.0
 63
     5
421
      255
463
1.0
 63
     2
421
 16776960
470
LINEAR
1001
GRADIENTCOLOR1ACI
1070
     5
1001
GRADIENTCOLOR2ACI
1070
     2
1001
ACAD
1010
0.0
1020
0.0
1030
0.0
  0
HATCH
  5
3D873
330
2
100
AcDbEntity
  8
0
  6
Continuous
 62
     0
100
AcDbHatch
 10
0.0
 20
0.0
 30
0.0
210
0.0
220
0.0
230
1.0
  2
SOLID
 70
     1
 71
     1
 91
        2
 92
        5
 93
        4
 72
     4
 94
        3
 73
     0
 74
     0
 95
        8
 96
        4
 40
0.0
 40
0.0
 40
0.0
 40
0.0
 40
1.0
 40
1.0
 40
1.0
 40
1.0
 10
205.3661699467935
 20
18.14770352073974
 10
205.3661699467935
 20
16.9694111457587
 10
206.1731339590891
 20
16.0663109873545
 10
207.5691817003603
 20
16.0663109873545
 97
        0
 72
     4
 94
        3
 73
     0
 74
     0
 95
        8
 96
        4
 40
3.0
 40
3.0
 40
3.0
 40
3.0
 40
4.0
 40
4.0
 40
4.0
 40
4.0
 10
207.5691817003603
 20
16.0663109873545
 10
209.4201023138254
 20
16.0663109873545
 10
210.3743185208101
 20
17.48164591802165
 10
210.3743185208101
 20
18.76252015784749
 97
        0
 72
     4
 94
        3
 73
     0
 74
     0
 95
        8
 96
        4
 40
2.0
 40
2.0
 40
2.0
 40
2.0
 40
3.0
 40
3.0
 40
3.0
 40
3.0
 10
210.3743185208101
 20
18.76252015784749
 10
210.3743185208101
 20
19.90898644971182
 10
209.5674794255443
 20
20.85682911211063
 10
208.1137200165209
 20
20.85682911211063
 97
        0
 72
     4
 94
        3
 73
     0
 74
     0
 95
        8
 96
        4
 40
1.0
 40
1.0
 40
1.0
 40
1.0
 40
2.0
 40
2.0
 40
2.0
 40
2.0
 10
208.1137200165209
 20
20.85682911211063
 10
206.3268318725145
 20
20.85682911211063
 10
205.3661699467935
 20
19.43492354567777
 10
205.3661699467935
 20
18.14770352073974
 97
        0
 97
        1
330
3D874
 92
       20
 93
        4
 72
     4
 94
        3
 73
     0
 74
     0
 95
        8
 96
        4
 40
2.0
 40
2.0
 40
2.0
 40
2.0
 40
3.0
 40
3.0
 40
3.0
 40
3.0
 10
207.6526012928387
 20
17.15508781880445
 10
207.1786910653083
 20
17.15508781880445
 10
206.7686883902068
 20
17.46895434779736
 10
206.7686883902068
 20
18.13501195051544
 97
        0
 72
     4
 94
        3
 73
     0
 74
     0
 95
        8
 96
        4
 40
1.0
 40
1.0
 40
1.0
 40
1.0
 40
2.0
 40
2.0
 40
2.0
 40
2.0
 10
206.7686883902068
 20
18.13501195051544
 10
206.7686883902068
 20
18.8267052764692
 10
207.2491953795266
 20
19.81931822967708
 10
208.1265365037751
 20
19.81931822967708
 97
        0
 72
     4
 94
        3
 73
     0
 74
     0
 95
        8
 96
        4
 40
0.0
 40
0.0
 40
0.0
 40
0.0
 40
1.0
 40
1.0
 40
1.0
 40
1.0
 10
208.1265365037751
 20
19.81931822967708
 10
208.5876552274573
 20
19.81931822967708
 10
208.984741481681
 20
19.50557661771403
 10
208.984741481681
 20
18.8458398167021
 97
        0
 72
     4
 94
        3
 73
     0
 74
     0
 95
        8
 96
        4
 40
3.0
 40
3.0
 40
3.0
 40
3.0
 40
4.0
 40
4.0
 40
4.0
 40
4.0
 10
208.984741481681
 20
18.8458398167021
 10
208.984741481681
 20
18.1862529161259
 10
208.6005966317413
 20
17.15508781880445
 10
207.6526012928387
 20
17.15508781880445
 97
        0
 97
        1
330
3D875
 75
     1
 76
     1
 47
0.0269459378258844
 98
        2
 10
206.3304566757452
 20
17.45500493764032
 10
206.3304566757452
 20
17.45500493764032
450
        0
451
        0
460
0.0
461
0.0
452
        0
462
1.0
453
        2
463
0.0
 63
     5
421
      255
463
1.0
 63
     2
421
 16776960
470
LINEAR
1001
GRADIENTCOLOR1ACI
1070
     5
1001
GRADIENTCOLOR2ACI
1070
     2
1001
ACAD
1010
0.0
1020
0.0
1030
0.0
  0
SPLINE
  5
3D874
102
{ACAD_REACTORS
330
3D873
102
}
330
2
100
AcDbEntity
  8
Layer 1
100
AcDbSpline
210
0.0
220
0.0
230
1.0
 70
     9
 71
     3
 72
    17
 73
    13
 74
     0
 42
0.000000001
 43
0.0000000001
 40
0.0
 40
0.0
 40
0.0
 40
0.0
 40
1.0
 40
1.0
 40
1.0
 40
2.0
 40
2.0
 40
2.0
 40
3.0
 40
3.0
 40
3.0
 40
4.0
 40
4.0
 40
4.0
 40
4.0
 10
207.5691817003603
 20
16.0663109873545
 30
0.0
 10
206.1731339590891
 20
16.0663109873545
 30
0.0
 10
205.3661699467935
 20
16.9694111457587
 30
0.0
 10
205.3661699467935
 20
18.14770352073974
 30
0.0
 10
205.3661699467935
 20
19.43492354567777
 30
0.0
 10
206.3268318725145
 20
20.85682911211063
 30
0.0
 10
208.1137200165209
 20
20.85682911211063
 30
0.0
 10
209.5674794255443
 20
20.85682911211063
 30
0.0
 10
210.3743185208101
 20
19.90898644971182
 30
0.0
 10
210.3743185208101
 20
18.76252015784749
 30
0.0
 10
210.3743185208101
 20
17.48164591802165
 30
0.0
 10
209.4201023138254
 20
16.0663109873545
 30
0.0
 10
207.5691817003603
 20
16.0663109873545
 30
0.0
  0
SPLINE
  5
3D875
102
{ACAD_REACTORS
330
3D873
102
}
330
2
100
AcDbEntity
  8
Layer 1
100
AcDbSpline
210
0.0
220
0.0
230
1.0
 70
     9
 71
     3
 72
    17
 73
    13
 74
     0
 42
0.000000001
 43
0.0000000001
 40
0.0
 40
0.0
 40
0.0
 40
0.0
 40
1.0
 40
1.0
 40
1.0
 40
2.0
 40
2.0
 40
2.0
 40
3.0
 40
3.0
 40
3.0
 40
4.0
 40
4.0
 40
4.0
 40
4.0
 10
208.984741481681
 20
18.8458398167021
 30
0.0
 10
208.984741481681
 20
19.50557661771403
 30
0.0
 10
208.5876552274573
 20
19.81931822967708
 30
0.0
 10
208.1265365037751
 20
19.81931822967708
 30
0.0
 10
207.2491953795266
 20
19.81931822967708
 30
0.0
 10
206.7686883902068
 20
18.8267052764692
 30
0.0
 10
206.7686883902068
 20
18.13501195051544
 30
0.0
 10
206.7686883902068
 20
17.46895434779736
 30
0.0
 10
207.1786910653083
 20
17.15508781880445
 30
0.0
 10
207.6526012928387
 20
17.15508781880445
 30
0.0
 10
208.6005966317413
 20
17.15508781880445
 30
0.0
 10
208.984741481681
 20
18.1862529161259
 30
0.0
 10
208.984741481681
 20
18.8458398167021
 30
0.0
  0
HATCH
  5
3D876
330
2
100
AcDbEntity
  8
0
  6
Continuous
 62
     0
100
AcDbHatch
 10
0.0
 20
0.0
 30
0.0
210
0.0
220
0.0
230
1.0
  2
SOLID
 70
     1
 71
     1
 91
        2
 92
        5
 93
        4
 72
     4
 94
        3
 73
     0
 74
     0
 95
        8
 96
        4
 40
0.0
 40
0.0
 40
0.0
 40
0.0
 40
1.0
 40
1.0
 40
1.0
 40
1.0
 10
210.5307146420782
 20
18.14770352073974
 10
210.5307146420782
 20
16.9694111457587
 10
211.3377785879976
 20
16.0663109873545
 10
212.7337014122389
 20
16.0663109873545
 97
        0
 72
     4
 94
        3
 73
     0
 74
     0
 95
        8
 96
        4
 40
3.0
 40
3.0
 40
3.0
 40
3.0
 40
4.0
 40
4.0
 40
4.0
 40
4.0
 10
212.7337014122389
 20
16.0663109873545
 10
214.58464700911
 20
16.0663109873545
 10
215.5388632160948
 20
17.48164591802165
 10
215.5388632160948
 20
18.76252015784749
 97
        0
 72
     4
 94
        3
 73
     0
 74
     0
 95
        8
 96
        4
 40
2.0
 40
2.0
 40
2.0
 40
2.0
 40
3.0
 40
3.0
 40
3.0
 40
3.0
 10
215.5388632160948
 20
18.76252015784749
 10
215.5388632160948
 20
19.90898644971182
 10
214.7318992037993
 20
20.85682911211063
 10
213.2782647118057
 20
20.85682911211063
 97
        0
 72
     4
 94
        3
 73
     0
 74
     0
 95
        8
 96
        4
 40
1.0
 40
1.0
 40
1.0
 40
1.0
 40
2.0
 40
2.0
 40
2.0
 40
2.0
 10
213.2782647118057
 20
20.85682911211063
 10
211.4912516507695
 20
20.85682911211063
 10
210.5307146420782
 20
19.43492354567777
 10
210.5307146420782
 20
18.14770352073974
 97
        0
 97
        1
330
3D878
 92
       20
 93
        4
 72
     4
 94
        3
 73
     0
 74
     0
 95
        8
 96
        4
 40
0.0
 40
0.0
 40
0.0
 40
0.0
 40
1.0
 40
1.0
 40
1.0
 40
1.0
 10
214.149161259936
 20
18.8458398167021
 10
214.149161259936
 20
19.50557661771403
 10
213.7520750057123
 20
19.81931822967708
 10
213.2907064479705
 20
19.81931822967708
 97
        0
 72
     4
 94
        3
 73
     0
 74
     0
 95
        8
 96
        4
 40
1.0
 40
1.0
 40
1.0
 40
1.0
 40
2.0
 40
2.0
 40
2.0
 40
2.0
 10
213.2907064479705
 20
19.81931822967708
 10
212.4136140151638
 20
19.81931822967708
 10
211.9333342800643
 20
18.8267052764692
 10
211.9333342800643
 20
18.13501195051544
 97
        0
 72
     4
 94
        3
 73
     0
 74
     0
 95
        8
 96
        4
 40
2.0
 40
2.0
 40
2.0
 40
2.0
 40
3.0
 40
3.0
 40
3.0
 40
3.0
 10
211.9333342800643
 20
18.13501195051544
 10
211.9333342800643
 20
17.46895434779736
 10
212.3429859265335
 20
17.15508781880445
 10
212.816896154064
 20
17.15508781880445
 97
        0
 72
     4
 94
        3
 73
     0
 74
     0
 95
        8
 96
        4
 40
3.0
 40
3.0
 40
3.0
 40
3.0
 40
4.0
 40
4.0
 40
4.0
 40
4.0
 10
212.816896154064
 20
17.15508781880445
 10
213.7647665759366
 20
17.15508781880445
 10
214.149161259936
 20
18.1862529161259
 10
214.149161259936
 20
18.8458398167021
 97
        0
 97
        1
330
3D877
 75
     1
 76
     1
 47
0.0269459378258844
 98
        2
 10
211.8459599216342
 20
17.81942158474831
 10
211.8459599216342
 20
17.81942158474831
450
        0
451
        0
460
0.0
461
0.0
452
        0
462
1.0
453
        2
463
0.0
 63
     5
421
      255
463
1.0
 63
     2
421
 16776960
470
LINEAR
1001
GRADIENTCOLOR1ACI
1070
     5
1001
GRADIENTCOLOR2ACI
1070
     2
1001
ACAD
1010
0.0
1020
0.0
1030
0.0
  0
SPLINE
  5
3D877
102
{ACAD_REACTORS
330
3D876
102
}
330
2
100
AcDbEntity
  8
Layer 1
100
AcDbSpline
210
0.0
220
0.0
230
1.0
 70
     9
 71
     3
 72
    17
 73
    13
 74
     0
 42
0.000000001
 43
0.0000000001
 40
0.0
 40
0.0
 40
0.0
 40
0.0
 40
1.0
 40
1.0
 40
1.0
 40
2.0
 40
2.0
 40
2.0
 40
3.0
 40
3.0
 40
3.0
 40
4.0
 40
4.0
 40
4.0
 40
4.0
 10
214.149161259936
 20
18.8458398167021
 30
0.0
 10
214.149161259936
 20
19.50557661771403
 30
0.0
 10
213.7520750057123
 20
19.81931822967708
 30
0.0
 10
213.2907064479705
 20
19.81931822967708
 30
0.0
 10
212.4136140151638
 20
19.81931822967708
 30
0.0
 10
211.9333342800643
 20
18.8267052764692
 30
0.0
 10
211.9333342800643
 20
18.13501195051544
 30
0.0
 10
211.9333342800643
 20
17.46895434779736
 30
0.0
 10
212.3429859265335
 20
17.15508781880445
 30
0.0
 10
212.816896154064
 20
17.15508781880445
 30
0.0
 10
213.7647665759366
 20
17.15508781880445
 30
0.0
 10
214.149161259936
 20
18.1862529161259
 30
0.0
 10
214.149161259936
 20
18.8458398167021
 30
0.0
  0
SPLINE
  5
3D878
102
{ACAD_REACTORS
330
3D876
102
}
330
2
100
AcDbEntity
  8
Layer 1
100
AcDbSpline
210
0.0
220
0.0
230
1.0
 70
     9
 71
     3
 72
    17
 73
    13
 74
     0
 42
0.000000001
 43
0.0000000001
 40
0.0
 40
0.0
 40
0.0
 40
0.0
 40
1.0
 40
1.0
 40
1.0
 40
2.0
 40
2.0
 40
2.0
 40
3.0
 40
3.0
 40
3.0
 40
4.0
 40
4.0
 40
4.0
 40
4.0
 10
212.7337014122389
 20
16.0663109873545
 30
0.0
 10
211.3377785879976
 20
16.0663109873545
 30
0.0
 10
210.5307146420782
 20
16.9694111457587
 30
0.0
 10
210.5307146420782
 20
18.14770352073974
 30
0.0
 10
210.5307146420782
 20
19.43492354567777
 30
0.0
 10
211.4912516507695
 20
20.85682911211063
 30
0.0
 10
213.2782647118057
 20
20.85682911211063
 30
0.0
 10
214.7318992037993
 20
20.85682911211063
 30
0.0
 10
215.5388632160948
 20
19.90898644971182
 30
0.0
 10
215.5388632160948
 20
18.76252015784749
 30
0.0
 10
215.5388632160948
 20
17.48164591802165
 30
0.0
 10
214.58464700911
 20
16.0663109873545
 30
0.0
 10
212.7337014122389
 20
16.0663109873545
 30
0.0
  0
HATCH
  5
3D879
330
2
100
AcDbEntity
  8
0
  6
Continuous
 62
     0
100
AcDbHatch
 10
0.0
 20
0.0
 30
0.0
210
0.0
220
0.0
230
1.0
  2
SOLID
 70
     1
 71
     1
 91
        1
 92
        5
 93
        6
 72
     4
 94
        3
 73
     0
 74
     0
 95
        8
 96
        4
 40
4.0
 40
4.0
 40
4.0
 40
4.0
 40
5.0
 40
5.0
 40
5.0
 40
5.0
 10
216.9245192475261
 20
17.25107406447754
 10
216.9245192475261
 20
17.25107406447754
 10
217.8532260099956
 20
20.72241838808124
 10
217.8532260099956
 20
20.72241838808124
 97
        0
 72
     4
 94
        3
 73
     0
 74
     0
 95
        8
 96
        4
 40
3.0
 40
3.0
 40
3.0
 40
3.0
 40
4.0
 40
4.0
 40
4.0
 40
4.0
 10
217.8532260099956
 20
20.72241838808124
 10
217.8532260099956
 20
20.72241838808124
 10
216.4311955265331
 20
20.72241838808124
 10
216.4311955265331
 20
20.72241838808124
 97
        0
 72
     4
 94
        3
 73
     0
 74
     0
 95
        8
 96
        4
 40
2.0
 40
2.0
 40
2.0
 40
2.0
 40
3.0
 40
3.0
 40
3.0
 40
3.0
 10
216.4311955265331
 20
20.72241838808124
 10
216.4311955265331
 20
20.72241838808124
 10
215.2209493753376
 20
16.20087161181958
 10
215.2209493753376
 20
16.20087161181958
 97
        0
 72
     4
 94
        3
 73
     0
 74
     0
 95
        8
 96
        4
 40
1.0
 40
1.0
 40
1.0
 40
1.0
 40
2.0
 40
2.0
 40
2.0
 40
2.0
 10
215.2209493753376
 20
16.20087161181958
 10
215.2209493753376
 20
16.20087161181958
 10
218.1479566679717
 20
16.20087161181958
 10
218.1479566679717
 20
16.20087161181958
 97
        0
 72
     4
 94
        3
 73
     0
 74
     0
 95
        8
 96
        4
 40
0.0
 40
0.0
 40
0.0
 40
0.0
 40
1.0
 40
1.0
 40
1.0
 40
1.0
 10
218.1479566679717
 20
16.20087161181958
 10
218.1479566679717
 20
16.20087161181958
 10
218.4953744932165
 20
17.25107406447754
 10
218.4953744932165
 20
17.25107406447754
 97
        0
 72
     4
 94
        3
 73
     0
 74
     0
 95
        8
 96
        4
 40
5.0
 40
5.0
 40
5.0
 40
5.0
 40
6.0
 40
6.0
 40
6.0
 40
6.0
 10
218.4953744932165
 20
17.25107406447754
 10
218.4953744932165
 20
17.25107406447754
 10
216.9245192475261
 20
17.25107406447754
 10
216.9245192475261
 20
17.25107406447754
 97
        0
 97
        6
330
3D87E
330
3D87D
330
3D87C
330
3D87B
330
3D87A
330
3D87F
 75
     1
 76
     1
 47
0.0168242271866721
 98
        1
 10
216.4890548856337
 20
17.54602422037659
450
        0
451
        0
460
0.0
461
0.0
452
        0
462
1.0
453
        2
463
0.0
 63
     5
421
      255
463
1.0
 63
     2
421
 16776960
470
LINEAR
1001
GRADIENTCOLOR1ACI
1070
     5
1001
GRADIENTCOLOR2ACI
1070
     2
1001
ACAD
1010
0.0
1020
0.0
1030
0.0
  0
SPLINE
  5
3D87A
102
{ACAD_REACTORS
330
3D879
102
}
330
2
100
AcDbEntity
  8
Layer 1
100
AcDbSpline
210
0.0
220
0.0
230
1.0
 70
    24
 71
     3
 72
     8
 73
     4
 74
     0
 42
0.000000001
 43
0.0000000001
 40
0.0
 40
0.0
 40
0.0
 40
0.0
 40
1.0
 40
1.0
 40
1.0
 40
1.0
 10
218.4953744932165
 20
17.25107406447754
 30
0.0
 10
218.4953744932165
 20
17.25107406447754
 30
0.0
 10
218.1479566679717
 20
16.20087161181958
 30
0.0
 10
218.1479566679717
 20
16.20087161181958
 30
0.0
  0
SPLINE
  5
3D87B
102
{ACAD_REACTORS
330
3D879
102
}
330
2
100
AcDbEntity
  8
Layer 1
100
AcDbSpline
210
0.0
220
0.0
230
1.0
 70
    24
 71
     3
 72
     8
 73
     4
 74
     0
 42
0.000000001
 43
0.0000000001
 40
1.0
 40
1.0
 40
1.0
 40
1.0
 40
2.0
 40
2.0
 40
2.0
 40
2.0
 10
218.1479566679717
 20
16.20087161181958
 30
0.0
 10
218.1479566679717
 20
16.20087161181958
 30
0.0
 10
215.2209493753376
 20
16.20087161181958
 30
0.0
 10
215.2209493753376
 20
16.20087161181958
 30
0.0
  0
SPLINE
  5
3D87C
102
{ACAD_REACTORS
330
3D879
102
}
330
2
100
AcDbEntity
  8
Layer 1
100
AcDbSpline
210
0.0
220
0.0
230
1.0
 70
    24
 71
     3
 72
     8
 73
     4
 74
     0
 42
0.000000001
 43
0.0000000001
 40
2.0
 40
2.0
 40
2.0
 40
2.0
 40
3.0
 40
3.0
 40
3.0
 40
3.0
 10
215.2209493753376
 20
16.20087161181958
 30
0.0
 10
215.2209493753376
 20
16.20087161181958
 30
0.0
 10
216.4311955265331
 20
20.72241838808124
 30
0.0
 10
216.4311955265331
 20
20.72241838808124
 30
0.0
  0
SPLINE
  5
3D87D
102
{ACAD_REACTORS
330
3D879
102
}
330
2
100
AcDbEntity
  8
Layer 1
100
AcDbSpline
210
0.0
220
0.0
230
1.0
 70
    24
 71
     3
 72
     8
 73
     4
 74
     0
 42
0.000000001
 43
0.0000000001
 40
3.0
 40
3.0
 40
3.0
 40
3.0
 40
4.0
 40
4.0
 40
4.0
 40
4.0
 10
216.4311955265331
 20
20.72241838808124
 30
0.0
 10
216.4311955265331
 20
20.72241838808124
 30
0.0
 10
217.8532260099956
 20
20.72241838808124
 30
0.0
 10
217.8532260099956
 20
20.72241838808124
 30
0.0
  0
SPLINE
  5
3D87E
102
{ACAD_REACTORS
330
3D879
102
}
330
2
100
AcDbEntity
  8
Layer 1
100
AcDbSpline
210
0.0
220
0.0
230
1.0
 70
    24
 71
     3
 72
     8
 73
     4
 74
     0
 42
0.000000001
 43
0.0000000001
 40
4.0
 40
4.0
 40
4.0
 40
4.0
 40
5.0
 40
5.0
 40
5.0
 40
5.0
 10
217.8532260099956
 20
20.72241838808124
 30
0.0
 10
217.8532260099956
 20
20.72241838808124
 30
0.0
 10
216.9245192475261
 20
17.25107406447754
 30
0.0
 10
216.9245192475261
 20
17.25107406447754
 30
0.0
  0
SPLINE
  5
3D87F
102
{ACAD_REACTORS
330
3D879
102
}
330
2
100
AcDbEntity
  8
Layer 1
100
AcDbSpline
210
0.0
220
0.0
230
1.0
 70
    24
 71
     3
 72
     8
 73
     4
 74
     0
 42
0.000000001
 43
0.0000000001
 40
5.0
 40
5.0
 40
5.0
 40
5.0
 40
6.0
 40
6.0
 40
6.0
 40
6.0
 10
216.9245192475261
 20
17.25107406447754
 30
0.0
 10
216.9245192475261
 20
17.25107406447754
 30
0.0
 10
218.4953744932165
 20
17.25107406447754
 30
0.0
 10
218.4953744932165
 20
17.25107406447754
 30
0.0
  0
TEXT
  5
3D880
330
2
100
AcDbEntity
  8
0
 62
     2
100
AcDbText
 10
188.3354371153707
 20
10.88486619604659
 30
0.0
 40
2.208919999999999
  1
www.maritool.com
  7
굴림
100
AcDbText
  0
TEXT
  5
3D881
330
2
100
AcDbEntity
  8
0
 62
     2
100
AcDbText
 10
173.2332893351091
 20
3.485802478477989
 30
0.0
 40
1.767135999999999
  1
ITEM#
  7
굴림
100
AcDbText
  0
TEXT
  5
3D882
330
2
100
AcDbEntity
  8
0
 62
     2
100
AcDbText
 10
187.0597580324446
 20
3.065935893929943
 30
0.0
 40
2.650703999999999
  1
AHC1.0-.315(8 MM)
  7
굴림
100
AcDbText
  0
LINE
  5
3D886
330
2
100
AcDbEntity
  8
0
  6
Continuous
 62
     3
100
AcDbLine
 10
105.0254136676743
 20
65.98067516598675
 30
0.0
 11
105.0254136676743
 21
48.07961700887945
 31
0.0
  0
MTEXT
  5
3D887
330
2
100
AcDbEntity
  8
0
  6
Continuous
 62
     2
100
AcDbMText
 10
105.0259478368219
 20
45.6308019050834
 30
0.0
 40
3.0
 41
0.0
 46
0.0
 71
     5
 72
     1
  1
0.00
 73
     1
 44
1.0
  0
LINE
  5
3D888
330
2
100
AcDbEntity
  8
0
  6
Continuous
 62
     3
100
AcDbLine
 10
112.525413667671
 20
65.8411463133838
 30
0.0
 11
112.525413667671
 21
61.48904073638523
 31
0.0
  0
LINE
  5
3D889
330
2
100
AcDbEntity
  8
0
  6
Continuous
 62
     3
100
AcDbLine
 10
112.525413667671
 20
61.48904073638523
 30
0.0
 11
118.5663459976684
 21
56.48904073638523
 31
0.0
  0
LINE
  5
3D88A
330
2
100
AcDbEntity
  8
0
  6
Continuous
 62
     3
100
AcDbLine
 10
118.5663459976684
 20
56.48904073638523
 30
0.0
 11
118.5663459976684
 21
47.93666668196318
 31
0.0
  0
MTEXT
  5
3D88B
330
2
100
AcDbEntity
  8
0
  6
Continuous
 62
     2
100
AcDbMText
 10
118.5108892275425
 20
45.45522242145422
 30
0.0
 40
3.0
 41
0.0
 46
0.0
 71
     5
 72
     1
  1
0.295
 73
     1
 44
1.0
  0
LINE
  5
3D88C
330
2
100
AcDbEntity
  8
0
  6
Continuous
 62
     3
100
AcDbLine
 10
50.5254136676707
 20
73.27806898281585
 30
0.0
 11
50.5254136676707
 21
47.77518157050052
 31
0.0
  0
MTEXT
  5
3D88D
330
2
100
AcDbEntity
  8
0
  6
Continuous
 62
     2
100
AcDbMText
 10
50.52594783681832
 20
45.32636646670447
 30
0.0
 40
3.0
 41
0.0
 46
0.0
 71
     5
 72
     1
  1
2.145
 73
     1
 44
1.0
  0
DIMENSION
  5
3FE03
330
2
100
AcDbEntity
  8
0
  6
Continuous
 62
     7
100
AcDbDimension
280
     0
  2
*D0
 10
122.8408875176426
 20
90.44403009467364
 30
0.0
 11
122.8408875176426
 21
83.94403009467366
 31
0.0
 70
   160
  1
%%C.315(8 MM)
 71
     5
 42
13.0
 73
     0
 74
     0
 75
     0
  3
Standard$0
100
AcDbAlignedDimension
 13
111.5254136676713
 23
77.44403009467365
 33
0.0
 14
112.025413667651
 24
90.44403009467364
 34
0.0
 50
90.0
100
AcDbRotatedDimension
1001
ACAD
1000
DSTYLE
1002
{
1070
    42
1040
0.625
1070
    43
1040
3.75
1070
    44
1040
1.25
1070
    48
1040
0.000000001
1070
    74
1070
     0
1070
    75
1070
     1
1070
    77
1070
     1
1070
    90
1070
     1
1070
   140
1040
3.0
1070
   141
1040
-0.5
1070
   143
1040
0.03937007874016
1070
   146
1040
0.7
1070
   147
1040
0.625
1070
   171
1070
     3
1070
   172
1070
     1
1070
   175
1070
     0
1070
   179
1070
     0
1070
   274
1070
     3
1070
   281
1070
     1
1070
   283
1070
     0
1070
   284
1070
     8
1070
   340
1005
25
1070
   371
1070
    -1
1070
   372
1070
    -1
1002
}
  0
DIMENSION
  5
3FE04
330
2
100
AcDbEntity
  8
0
  6
Continuous
 62
     7
100
AcDbDimension
280
     0
  2
*D1
 10
130.8408875176426
 20
106.9440300946736
 30
0.0
 11
128.7158875176426
 21
86.44403009467366
 31
0.0
 70
    32
  1
%%C1.61
 71
     5
 42
20.5
 73
     0
 74
     0
 75
     0
  3
Standard$0
100
AcDbAlignedDimension
 13
112.2254136676711
 23
65.94403009467365
 33
0.0
 14
112.2254136676711
 24
106.9440300946736
 34
0.0
 50
90.0
100
AcDbRotatedDimension
1001
ACAD
1000
DSTYLE
1002
{
1070
    42
1040
0.625
1070
    43
1040
3.75
1070
    44
1040
1.25
1070
    48
1040
0.000000001
1070
    74
1070
     0
1070
    77
1070
     1
1070
    90
1070
     1
1070
   140
1040
3.0
1070
   141
1040
-0.5
1070
   143
1040
0.03937007874016
1070
   144
1040
0.5
1070
   146
1040
0.7
1070
   147
1040
0.625
1070
   171
1070
     3
1070
   172
1070
     1
1070
   175
1070
     0
1070
   179
1070
     0
1070
   274
1070
     3
1070
   283
1070
     0
1070
   284
1070
     8
1070
   340
1005
25
1070
   371
1070
    -1
1070
   372
1070
    -1
1002
}
  0
DIMENSION
  5
4C316
330
2
100
AcDbEntity
  8
0
 62
     7
100
AcDbDimension
280
     0
  2
*D2
 10
76.82353179776041
 20
99.1440300946731
 30
0.0
 11
76.82353179776038
 21
107.815605977097
 31
0.0
 70
   160
  1
%%C1.000
 71
     5
 42
25.39999999999901
 73
     0
 74
     0
 75
     0
  3
Standard$0
100
AcDbAlignedDimension
 13
81.15041366766154
 23
73.74403009467409
 33
0.0
 14
81.15041366765723
 24
99.1440300946731
 34
0.0
 50
90.0
100
AcDbRotatedDimension
1001
ACAD
1000
DSTYLE
1002
{
1070
    42
1040
0.625
1070
    43
1040
3.75
1070
    44
1040
1.25
1070
    48
1040
0.000000001
1070
    74
1070
     0
1070
    77
1070
     1
1070
    90
1070
     1
1070
   140
1040
3.0
1070
   141
1040
-0.5
1070
   143
1040
0.03937007874016
1070
   146
1040
0.7
1070
   147
1040
0.625
1070
   171
1070
     3
1070
   172
1070
     1
1070
   175
1070
     0
1070
   179
1070
     1
1070
   274
1070
     3
1070
   283
1070
     0
1070
   284
1070
     8
1070
   340
1005
25
1070
   371
1070
    -1
1070
   372
1070
    -1
1002
}
  0
LINE
  5
4DCE6
330
2
100
AcDbEntity
  8
0
  6
CENTER
 62
     3
100
AcDbLine
 10
48.5254136676707
 20
86.44403009467366
 30
0.0
 11
114.5254136676707
 21
86.44403009467366
 31
0.0
  0
LINE
  5
4DCE7
330
2
100
AcDbEntity
  8
0
  6
Continuous
100
AcDbLine
 10
50.5254136676707
 20
74.2440300946736
 30
0.0
 11
50.5254136676707
 21
86.44403009467366
 31
0.0
  0
POINT
  5
4DCE8
330
2
100
AcDbEntity
  8
DEFPOINTS
  6
ByBlock
 62
     0
100
AcDbPoint
 10
50.5254136676707
 20
75.69403009467364
 30
0.0
 50
0.000000000000007
  0
HATCH
  5
4DCE9
330
2
100
AcDbEntity
  8
0
 62
     4
100
AcDbHatch
 10
0.0
 20
0.0
 30
0.0
210
0.0
220
0.0
230
1.0
  2
ANSI31
 70
     0
 71
     0
 91
        7
 92
        7
 72
     1
 73
     1
 93
       13
 10
61.83789974119583
 20
99.1440300946698
 42
0.0
 10
59.27541366766661
 20
99.14403009466937
 42
0.0
 10
59.02541366767071
 20
98.89403009467347
 42
0.0
 10
54.7754136676707
 20
98.89403009467347
 42
0.0
 10
54.52541366767025
 20
99.14403009467347
 42
0.0
 10
51.0254136676707
 20
99.14403009467347
 42
0.4142135623730951
 10
50.5254136676707
 20
98.64403009467347
 42
0.0
 10
50.5254136676707
 20
97.64403009467438
 42
0.1989123673798099
 10
50.8183068864846
 20
96.9369233134874
 42
0.0
 10
51.26659462256743
 20
96.67810426838551
 42
0.0655434628154335
 10
51.52541366767071
 20
96.64403009467438
 42
0.0
 10
61.51564453018682
 20
96.64403009467315
 42
-0.0310387081198946
 10
61.47680873057317
 20
97.26903009467257
 42
-0.0954143139495294
 97
        0
 92
        7
 72
     1
 73
     1
 93
        5
 10
64.02541366767071
 20
99.14403009467017
 42
0.0
 10
61.83789974119583
 20
99.1440300946698
 42
0.0954143139495294
 10
61.47680873057317
 20
97.26903009467257
 42
0.031038708119925
 10
61.51564453018682
 20
96.64403009467257
 42
0.0
 10
64.02541366767071
 20
96.64403009467257
 42
0.0
 97
        0
 92
        7
 72
     0
 73
     1
 93
        5
 10
112.525413667671
 20
96.22486257191136
 10
101.5254136676707
 20
96.22486257191136
 10
101.5254136676707
 20
90.44403009467364
 10
112.025413667651
 20
90.44403009467364
 10
112.525413667671
 20
90.73270522927865
 97
        0
 92
        7
 72
     1
 73
     1
 93
       11
 10
112.525413667671
 20
100.5940300946753
 42
0.0
 10
107.025413667671
 20
100.5940300946753
 42
0.0
 10
107.025413667671
 20
100.3940300946753
 42
0.0
 10
105.0254136676713
 20
100.3940300946753
 42
0.0
 10
105.025413667671
 20
99.24403009467679
 42
-0.4142135623730047
 10
104.6254136676711
 20
98.84403009467675
 42
0.0
 10
104.145028909926
 20
98.84403009467659
 42
0.0
 10
103.0254136676545
 20
99.14403009467683
 42
0.0
 10
101.5254136676707
 20
99.14403009467656
 42
0.0
 10
101.5254136676707
 20
96.22486257191136
 42
0.0
 10
112.525413667671
 20
96.22486257191136
 42
0.0
 97
        0
 92
        7
 72
     1
 73
     1
 93
        8
 10
112.5254136676711
 20
106.6440300946737
 42
0.4142135623730951
 10
112.2254136676711
 20
106.9440300946737
 42
0.0
 10
105.325413667671
 20
106.9440300946737
 42
0.414213562373109
 10
105.025413667671
 20
106.6440300946736
 42
0.0
 10
105.025413667671
 20
105.7940300946754
 42
0.0
 10
107.025413667671
 20
105.7940300946754
 42
0.0
 10
107.025413667671
 20
105.5940300946753
 42
0.0
 10
112.525413667671
 20
105.5940300946753
 42
0.0
 97
        0
 92
        7
 72
     0
 73
     1
 93
        4
 10
112.525413667671
 20
105.5940300946753
 10
107.025413667671
 20
105.5940300946753
 10
107.025413667671
 20
105.2440300946753
 10
112.525413667671
 20
105.2440300946753
 97
        0
 92
        7
 72
     0
 73
     1
 93
        4
 10
112.525413667671
 20
100.9440300946753
 10
107.025413667671
 20
100.9440300946753
 10
107.025413667671
 20
100.5940300946753
 10
112.525413667671
 20
100.5940300946753
 97
        0
 75
     1
 76
     1
 52
0.0
 41
1.0
 77
     0
 78
     1
 53
45.0
 43
-121.7008162660019
 44
-56.67099689187051
 45
-2.245064030267287
 46
2.245064030267288
 79
     0
 47
0.0128853925640579
 98
        7
 10
58.8256041577182
 20
97.71927037784763
 10
63.31193813095103
 20
97.85313492089636
 10
110.5437276070946
 20
94.85899651269376
 10
109.1198348643396
 20
98.23199173588164
 10
108.7769765858696
 20
106.6166444626408
 10
109.4896696278141
 20
105.4606473067845
 10
109.5154578628847
 20
100.7059381185402
1001
GRADIENTCOLOR1ACI
1070
     5
1001
GRADIENTCOLOR2ACI
1070
     2
1001
ACAD
1010
0.0
1020
0.0
1030
0.0
  0
LINE
  5
4DCEA
330
2
100
AcDbEntity
  8
0
  6
Continuous
100
AcDbLine
 10
50.5254136676707
 20
98.64403009467347
 30
0.0
 11
50.5254136676707
 21
86.44403009467366
 31
0.0
1001
ACAD
1000
ASC_BOUNDS
1002
{
1070
    19
1002
}
  0
ARC
  5
4DCEB
330
2
100
AcDbEntity
  8
0
  6
Continuous
 62
     7
100
AcDbCircle
 10
51.0254136676707
 20
98.64403009467347
 30
0.0
 40
0.5
100
AcDbArc
 50
89.99999999997395
 51
180.0
1001
ACAD
1000
ASC_BOUNDS
1002
{
1070
    19
1002
}
  0
LINE
  5
4DCEC
330
2
100
AcDbEntity
  8
0
 62
     0
100
AcDbLine
 10
51.0254136676707
 20
99.14403009467347
 30
0.0
 11
54.52541366767025
 21
99.14403009467347
 31
0.0
  0
LINE
  5
4DCED
330
2
100
AcDbEntity
  8
0
  6
Continuous
100
AcDbLine
 10
59.02541366767071
 20
73.9940300946736
 30
0.0
 11
59.02541366767071
 21
86.44403009467366
 31
0.0
  0
LINE
  5
4DCEE
330
2
100
AcDbEntity
  8
0
  6
Continuous
100
AcDbLine
 10
54.7754136676707
 20
73.9940300946736
 30
0.0
 11
54.7754136676707
 21
86.44403009467366
 31
0.0
  0
LINE
  5
4DCEF
330
2
100
AcDbEntity
  8
0
 62
     0
100
AcDbLine
 10
54.7754136676707
 20
73.9940300946736
 30
0.0
 11
59.02541366767071
 21
73.9940300946736
 31
0.0
  0
LINE
  5
4DCF0
330
2
100
AcDbEntity
  8
0
  6
Continuous
100
AcDbLine
 10
56.70808609760877
 20
73.9940300946736
 30
0.0
 11
58.86397583990436
 21
73.9940300946736
 31
0.0
  0
LINE
  5
4DCF1
330
2
100
AcDbEntity
  8
0
  6
Continuous
100
AcDbLine
 10
59.02541366767071
 20
73.9940300946736
 30
0.0
 11
59.2754136676707
 21
73.74403009467361
 31
0.0
  0
LINE
  5
4DCF2
330
2
100
AcDbEntity
  8
0
  6
Continuous
100
AcDbLine
 10
54.52541366767025
 20
73.74403009467361
 30
0.0
 11
54.52541366767025
 21
86.44403009467366
 31
0.0
  0
LINE
  5
4DCF3
330
2
100
AcDbEntity
  8
0
  6
Continuous
100
AcDbLine
 10
59.2754136676707
 20
73.74403009467361
 30
0.0
 11
59.2754136676707
 21
86.44403009467366
 31
0.0
  0
LINE
  5
4DCF4
330
2
100
AcDbEntity
  8
0
 62
     0
100
AcDbLine
 10
54.7754136676707
 20
98.89403009467347
 30
0.0
 11
59.02541366767071
 21
98.89403009467347
 31
0.0
  0
LINE
  5
4DCF5
330
2
100
AcDbEntity
  8
0
  6
Continuous
100
AcDbLine
 10
54.52541366767025
 20
99.14403009467347
 30
0.0
 11
54.7754136676707
 21
98.89403009467347
 31
0.0
  0
LINE
  5
4DCF6
330
2
100
AcDbEntity
  8
0
  6
Continuous
100
AcDbLine
 10
59.02541366767071
 20
98.89403009467347
 30
0.0
 11
59.2754136676707
 21
99.14403009467347
 31
0.0
  0
ARC
  5
4DCF7
330
2
100
AcDbEntity
  8
0
  6
Continuous
 62
     7
100
AcDbCircle
 10
51.0254136676707
 20
74.2440300946736
 30
0.0
 40
0.5
100
AcDbArc
 50
180.0
 51
270.0
1001
ACAD
1000
ASC_BOUNDS
1002
{
1070
    19
1002
}
  0
LINE
  5
4DCF8
330
2
100
AcDbEntity
  8
0
 62
     0
100
AcDbLine
 10
51.0254136676707
 20
73.74403009467361
 30
0.0
 11
54.52541366767025
 21
73.74403009467361
 31
0.0
  0
LINE
  5
4DCF9
330
2
100
AcDbEntity
  8
0
  6
Continuous
100
AcDbLine
 10
54.52541366767025
 20
73.74403009467361
 30
0.0
 11
54.7754136676707
 21
73.9940300946736
 31
0.0
  0
LINE
  5
4DCFA
330
2
100
AcDbEntity
  8
0
  6
Continuous
 62
     7
100
AcDbLine
 10
64.02541366767071
 20
96.64403009467257
 30
0.0
 11
64.02541366767071
 21
99.14403009467029
 31
0.0
  0
LINE
  5
4DCFB
330
2
100
AcDbEntity
  8
0
  6
Continuous
 62
     7
100
AcDbLine
 10
66.0254136676707
 20
96.64403009467257
 30
0.0
 11
66.0254136676707
 21
99.14403009467051
 31
0.0
  0
LINE
  5
4DCFC
330
2
100
AcDbEntity
  8
0
  6
Continuous
 62
     7
100
AcDbLine
 10
101.5254136676707
 20
90.44403009467364
 30
0.0
 11
101.5254136676707
 21
99.14403009467665
 31
0.0
  0
ARC
  5
4DCFD
330
2
100
AcDbEntity
  8
0
  6
Continuous
 62
     7
100
AcDbCircle
 10
101.3254136676713
 20
81.44503019469462
 30
0.0
 40
0.2
100
AcDbArc
 50
300.0000000462569
 51
59.99999995387846
  0
LINE
  5
4DCFE
330
2
100
AcDbEntity
  8
0
  6
Continuous
 62
     7
100
AcDbLine
 10
101.4254136676712
 20
81.61823527545143
 30
0.0
 11
66.0107824250216
 21
81.61823527545143
 31
0.0
  0
LINE
  5
4DCFF
330
2
100
AcDbEntity
  8
0
  6
Continuous
 62
     7
100
AcDbLine
 10
101.4254136676712
 20
81.27182511393781
 30
0.0
 11
65.99943083486357
 21
81.27182511393781
 31
0.0
  0
ELLIPSE
  5
4DD00
330
2
100
AcDbEntity
  8
0
  6
Continuous
 62
     7
100
AcDbEllipse
 10
65.02541366767116
 20
81.46909290914132
 30
0.0
 11
1.000314023029262
 21
0.0000000000002739
 31
0.0
210
0.0
220
0.0
230
1.0
 40
0.8657535372373271
 41
0.1730775918081102
 42
6.053382797577416
  0
LINE
  5
4DD01
330
2
100
AcDbEntity
  8
0
  6
Continuous
100
AcDbLine
 10
59.27541366766888
 20
73.74403009467769
 30
0.0
 11
103.0254136676542
 21
73.74403009467044
 31
0.0
1001
ACAD
1000
ASC_BOUNDS
1002
{
1070
    19
1005
0
1005
0
1005
0
1002
}
  0
LINE
  5
4DD02
330
2
100
AcDbEntity
  8
0
  6
Continuous
100
AcDbLine
 10
104.145028909926
 20
74.04403009467078
 30
0.0
 11
104.625413667671
 21
74.0440300946706
 31
0.0
1001
ACAD
1000
ASC_BOUNDS
1002
{
1070
    19
1005
0
1005
0
1005
0
1002
}
  0
LINE
  5
4DD03
330
2
100
AcDbEntity
  8
0
  6
Continuous
100
AcDbLine
 10
103.025413667671
 20
73.74403009467497
 30
0.0
 11
103.025413667671
 21
86.44403009467501
 31
0.0
  0
LINE
  5
4DD04
330
2
100
AcDbEntity
  8
0
  6
Continuous
100
AcDbLine
 10
59.27541366766888
 20
99.14403009466937
 30
0.0
 11
103.0254136676544
 21
99.14403009467683
 31
0.0
1001
ACAD
1000
ASC_BOUNDS
1002
{
1070
    19
1005
0
1005
0
1005
0
1002
}
  0
LINE
  5
4DD05
330
2
100
AcDbEntity
  8
0
  6
Continuous
100
AcDbLine
 10
105.025413667671
 20
66.24403009467361
 30
0.0
 11
105.025413667671
 21
86.44403009467367
 31
0.0
  0
ARC
  5
4DD06
330
2
100
AcDbEntity
  8
0
  6
Continuous
100
AcDbCircle
 10
104.625413667671
 20
73.6440300946706
 30
0.0
 40
0.4
100
AcDbArc
 50
0.0
 51
89.99999999999023
  0
LINE
  5
4DD07
330
2
100
AcDbEntity
  8
0
  6
Continuous
100
AcDbLine
 10
112.525413667671
 20
66.24403009467361
 30
0.0
 11
112.525413667671
 21
106.6440300946737
 31
0.0
  0
ARC
  5
4DD08
330
2
100
AcDbEntity
  8
0
  6
Continuous
 62
     7
100
AcDbCircle
 10
112.2254136676711
 20
66.24403009467361
 30
0.0
 40
0.3
100
AcDbArc
 50
270.0
 51
0.0
  0
LINE
  5
4DD09
330
2
100
AcDbEntity
  8
0
  6
Continuous
100
AcDbLine
 10
105.025413667671
 20
106.6440300946737
 30
0.0
 11
105.0254136676714
 21
99.24403009467676
 31
0.0
  0
LINE
  5
4DD0A
330
2
100
AcDbEntity
  8
0
  6
Continuous
100
AcDbLine
 10
107.025413667671
 20
105.7940300946754
 30
0.0
 11
107.025413667671
 21
100.3940300946753
 31
0.0
  0
ARC
  5
4DD0B
330
2
100
AcDbEntity
  8
0
  6
Continuous
 62
     7
100
AcDbCircle
 10
105.325413667671
 20
106.6440300946737
 30
0.0
 40
0.3
100
AcDbArc
 50
90.0
 51
180.0
  0
LINE
  5
4DD0C
330
2
100
AcDbEntity
  8
0
  6
Continuous
 62
     7
100
AcDbLine
 10
112.2254136676711
 20
106.9440300946736
 30
0.0
 11
105.325413667671
 21
106.9440300946736
 31
0.0
  0
ARC
  5
4DD0D
330
2
100
AcDbEntity
  8
0
  6
Continuous
 62
     7
100
AcDbCircle
 10
112.2254136676711
 20
106.6440300946737
 30
0.0
 40
0.3
100
AcDbArc
 50
0.0
 51
90.0
  0
LINE
  5
4DD0E
330
2
100
AcDbEntity
  8
0
  6
Continuous
 62
     7
100
AcDbLine
 10
112.2254136676711
 20
65.94403009467365
 30
0.0
 11
105.325413667671
 21
65.94403009467365
 31
0.0
  0
ARC
  5
4DD0F
330
2
100
AcDbEntity
  8
0
  6
Continuous
 62
     7
100
AcDbCircle
 10
105.325413667671
 20
66.24403009467361
 30
0.0
 40
0.3
100
AcDbArc
 50
180.0
 51
270.0
  0
LINE
  5
4DD10
330
2
100
AcDbEntity
  8
0
  6
Continuous
 62
     7
100
AcDbLine
 10
105.0254136676711
 20
105.7940300946754
 30
0.0
 11
107.025413667671
 21
105.7940300946754
 31
0.0
  0
LINE
  5
4DD11
330
2
100
AcDbEntity
  8
0
  6
Continuous
 62
     7
100
AcDbLine
 10
105.0254136676711
 20
100.3940300946753
 30
0.0
 11
107.025413667671
 21
100.3940300946753
 31
0.0
  0
LINE
  5
4DD12
330
2
100
AcDbEntity
  8
0
  6
CENTER2
 62
     3
100
AcDbLine
 10
114.525413667671
 20
103.0940300946753
 30
0.0
 11
103.0254136676711
 21
103.0940300946753
 31
0.0
  0
LINE
  5
4DD13
330
2
100
AcDbEntity
  8
0
  6
Continuous
 62
     7
100
AcDbLine
 10
112.5254136676709
 20
100.9440300946753
 30
0.0
 11
107.025413667671
 21
100.9440300946753
 31
0.0
  0
LINE
  5
4DD14
330
2
100
AcDbEntity
  8
0
  6
Continuous
 62
     7
100
AcDbLine
 10
112.5254136676709
 20
105.2440300946753
 30
0.0
 11
107.025413667671
 21
105.2440300946753
 31
0.0
  0
LINE
  5
4DD15
330
2
100
AcDbEntity
  8
0
  6
Continuous
 62
     3
100
AcDbLine
 10
112.5254136676709
 20
100.5940300946753
 30
0.0
 11
107.025413667671
 21
100.5940300946753
 31
0.0
  0
LINE
  5
4DD16
330
2
100
AcDbEntity
  8
0
  6
Continuous
 62
     3
100
AcDbLine
 10
112.5254136676709
 20
105.5940300946753
 30
0.0
 11
107.025413667671
 21
105.5940300946753
 31
0.0
  0
LINE
  5
4DD17
330
2
100
AcDbEntity
  8
0
  6
Continuous
100
AcDbLine
 10
66.52541366767071
 20
96.64403009467257
 30
0.0
 11
51.52541366767071
 21
96.64403009467257
 31
0.0
1001
ACAD
1000
ASC_BOUNDS
1002
{
1070
    19
1002
}
  0
ARC
  5
4DD18
330
2
100
AcDbEntity
  8
0
  6
Continuous
100
AcDbCircle
 10
51.52541366767071
 20
97.64403009467438
 30
0.0
 40
1.0
100
AcDbArc
 50
180.0
 51
225.0000000000178
1001
ACAD
1000
ASC_BOUNDS
1002
{
1070
    19
1002
}
  0
LINE
  5
4DD19
330
2
100
AcDbEntity
  8
0
  6
Continuous
100
AcDbLine
 10
50.81830688648404
 20
96.93692331348771
 30
0.0
 11
51.26659462256782
 21
96.67810426838528
 31
0.0
  0
ARC
  5
4DD1A
330
2
100
AcDbEntity
  8
0
  6
Continuous
100
AcDbCircle
 10
51.52541366767071
 20
97.64403009467438
 30
0.0
 40
1.0
100
AcDbArc
 50
255.0000000000056
 51
269.9999999999739
1001
ACAD
1000
ASC_BOUNDS
1002
{
1070
    19
1002
}
  0
POINT
  5
4DD1B
330
2
100
AcDbEntity
  8
DEFPOINTS
  6
ByBlock
 62
     0
100
AcDbPoint
 10
50.5254136676707
 20
96.69403009467366
 30
0.0
  0
POINT
  5
4DD1C
330
2
100
AcDbEntity
  8
DEFPOINTS
  6
ByBlock
 62
     0
100
AcDbPoint
 10
50.5254136676707
 20
96.69403009467366
 30
0.0
  0
POINT
  5
4DD1D
330
2
100
AcDbEntity
  8
DEFPOINTS
  6
ByBlock
 62
     0
100
AcDbPoint
 10
50.5254136676707
 20
96.69403009467366
 30
0.0
  0
POINT
  5
4DD1E
330
2
100
AcDbEntity
  8
DEFPOINTS
  6
ByBlock
 62
     0
100
AcDbPoint
 10
50.5254136676707
 20
96.69403009467366
 30
0.0
  0
LINE
  5
4DD1F
330
2
100
AcDbEntity
  8
0
  6
Continuous
100
AcDbLine
 10
51.26659462256782
 20
96.67810426838528
 30
0.0
 11
51.26659462256828
 21
86.44403009467366
 31
0.0
  0
LINE
  5
4DD20
330
2
100
AcDbEntity
  8
0
  6
Continuous
100
AcDbLine
 10
50.81830688648404
 20
96.93692331348771
 30
0.0
 11
50.81830688648449
 21
86.44403009467366
 31
0.0
  0
LINE
  5
4DD21
330
2
100
AcDbEntity
  8
0
  6
Continuous
100
AcDbLine
 10
66.52541366767071
 20
96.64403009467257
 30
0.0
 11
66.52541366767071
 21
86.44403009467366
 31
0.0
  0
POINT
  5
4DD22
330
2
100
AcDbEntity
  8
DEFPOINTS
  6
ByBlock
 62
     0
100
AcDbPoint
 10
50.5254136676707
 20
96.69403009467366
 30
0.0
  0
LINE
  5
4DD23
330
2
100
AcDbEntity
  8
0
  6
Continuous
100
AcDbLine
 10
66.52541366767071
 20
96.64403009467257
 30
0.0
 11
67.97541366767098
 21
95.19403009467229
 31
0.0
  0
LINE
  5
4DD24
330
2
100
AcDbEntity
  8
0
  6
Continuous
100
AcDbLine
 10
67.97541366767098
 20
95.19403009467229
 30
0.0
 11
67.97541366767075
 21
86.44403009467229
 31
0.0
  0
CIRCLE
  5
4DD26
330
2
100
AcDbEntity
  8
0
  6
CENTER
 62
     3
100
AcDbCircle
 10
177.2300326517644
 20
86.44403009467366
 30
0.0
 40
16.65000000000168
  0
ARC
  5
4DD27
330
2
100
AcDbEntity
  8
0
  6
Continuous
 62
     3
100
AcDbCircle
 10
168.9050326517635
 20
100.863353067686
 30
0.0
 40
1.0
100
AcDbArc
 50
263.5370905671544
 51
162.9700963829981
  0
CIRCLE
  5
4DD28
330
2
100
AcDbEntity
  8
0
  6
Continuous
 62
     7
100
AcDbCircle
 10
168.9050326517635
 20
100.863353067686
 30
0.0
 40
0.8
  0
LINE
  5
4DD52
330
2
100
AcDbEntity
  8
0
  6
Continuous
100
AcDbLine
 10
103.025413667671
 20
73.74403009467497
 30
0.0
 11
104.145028909926
 21
74.04403009467078
 31
0.0
  0
LINE
  5
4DD53
330
2
100
AcDbEntity
  8
0
  6
Continuous
100
AcDbLine
 10
104.145028909926
 20
74.04403009467078
 30
0.0
 11
104.145028909926
 21
86.44403009467366
 31
0.0
  0
LINE
  5
4DD54
330
2
100
AcDbEntity
  8
0
  6
Continuous
100
AcDbLine
 10
104.145028909926
 20
98.84403009467659
 30
0.0
 11
104.625413667671
 21
98.84403009467675
 31
0.0
1001
ACAD
1000
ASC_BOUNDS
1002
{
1070
    19
1005
0
1005
0
1005
0
1002
}
  0
ARC
  5
4DD55
330
2
100
AcDbEntity
  8
0
  6
Continuous
100
AcDbCircle
 10
104.625413667671
 20
99.24403009467676
 30
0.0
 40
0.4
100
AcDbArc
 50
270.0000000000098
 51
0.0
  0
LINE
  5
4DD56
330
2
100
AcDbEntity
  8
0
  6
Continuous
100
AcDbLine
 10
103.025413667671
 20
99.14403009467239
 30
0.0
 11
104.145028909926
 21
98.84403009467659
 31
0.0
  0
LINE
  5
4DD57
330
2
100
AcDbEntity
  8
0
  6
CENTER2
 62
     3
100
AcDbLine
 10
114.525413667671
 20
69.99403009467133
 30
0.0
 11
103.0254136676711
 21
69.99403009467133
 31
0.0
  0
ARC
  5
4DD58
330
2
100
AcDbEntity
  8
0
  6
Continuous
 62
     3
100
AcDbCircle
 10
185.5550326517652
 20
72.02470712166129
 30
0.0
 40
1.0
100
AcDbArc
 50
83.53709056715439
 51
342.9700963829982
  0
CIRCLE
  5
4DD59
330
2
100
AcDbEntity
  8
0
  6
Continuous
 62
     7
100
AcDbCircle
 10
185.5550326517652
 20
72.02470712166129
 30
0.0
 40
0.8
  0
LINE
  5
4DD5A
330
2
100
AcDbEntity
  8
0
  6
Continuous
 62
     3
100
AcDbLine
 10
177.7300326517644
 20
85.57800469088922
 30
0.0
 11
187.6050326517644
 21
68.47400296614662
 31
0.0
  0
LINE
  5
4DD5B
330
2
100
AcDbEntity
  8
0
  6
Continuous
 62
     3
100
AcDbLine
 10
176.7300326517644
 20
87.31005549845818
 30
0.0
 11
166.8550326517644
 21
104.4140572232008
 31
0.0
  0
LINE
  5
4DD5C
330
2
100
AcDbEntity
  8
0
  6
Continuous
 62
     3
100
AcDbLine
 10
176.7300326517644
 20
86.44403009467366
 30
0.0
 11
177.7300326517644
 21
86.44403009467366
 31
0.0
  0
LINE
  5
4DD5D
330
2
100
AcDbEntity
  8
0
  6
Continuous
 62
     3
100
AcDbLine
 10
177.2300326517644
 20
85.94403009467365
 30
0.0
 11
177.2300326517644
 21
86.94403009467364
 31
0.0
  0
LINE
  5
4DD5E
330
2
100
AcDbEntity
  8
0
  6
Continuous
 62
     3
100
AcDbLine
 10
176.2300326517644
 20
86.44403009467366
 30
0.0
 11
156.4800326517644
 21
86.44403009467366
 31
0.0
  0
LINE
  5
4DD5F
330
2
100
AcDbEntity
  8
0
  6
Continuous
 62
     3
100
AcDbLine
 10
178.2300326517644
 20
86.44403009467366
 30
0.0
 11
197.9800326517644
 21
86.44403009467366
 31
0.0
  0
LINE
  5
4DD60
330
2
100
AcDbEntity
  8
0
  6
Continuous
 62
     3
100
AcDbLine
 10
177.2300326517644
 20
85.44403009467364
 30
0.0
 11
177.2300326517644
 21
65.69403009467364
 31
0.0
  0
LINE
  5
4DD61
330
2
100
AcDbEntity
  8
0
  6
Continuous
 62
     3
100
AcDbLine
 10
177.2300326517644
 20
87.44403009467365
 30
0.0
 11
177.2300326517644
 21
107.1940300946736
 31
0.0
  0
INSERT
  5
4DD63
102
{ACAD_REACTORS
330
4DD7D
102
}
330
2
100
AcDbEntity
  8
0
100
AcDbBlockReference
  2
*U4
 10
-147.0166309222742
 20
-56.67099689187051
 30
0.0
  0
CIRCLE
  5
4DD64
330
2
100
AcDbEntity
  8
0
100
AcDbCircle
 10
177.2300326517644
 20
86.44403009467366
 30
0.0
 40
20.5
  0
LINE
  5
4DD65
330
2
100
AcDbEntity
  8
0
100
AcDbLine
 10
67.97541366767098
 20
95.19403009467229
 30
0.0
 11
77.52541366767047
 21
95.19403009467367
 31
0.0
  0
LINE
  5
4DD66
330
2
100
AcDbEntity
  8
0
  6
Continuous
100
AcDbLine
 10
77.52541366767047
 20
95.19403009467367
 30
0.0
 11
80.26782744632056
 21
90.44403009467396
 31
0.0
  0
LINE
  5
4DD67
330
2
100
AcDbEntity
  8
0
  6
Continuous
100
AcDbLine
 10
77.52541366767047
 20
95.19403009467367
 30
0.0
 11
77.52541366767047
 21
86.44403009467367
 31
0.0
  0
LINE
  5
4DD72
330
2
100
AcDbEntity
  8
0
  6
Continuous
100
AcDbLine
 10
112.025413667651
 20
90.44403009467364
 30
0.0
 11
112.525413667671
 21
90.73270522927865
 31
0.0
1001
ACAD
1000
ASC_BOUNDS
1002
{
1070
    19
1002
}
  0
LINE
  5
4DD73
330
2
100
AcDbEntity
  8
0
  6
Continuous
100
AcDbLine
 10
112.025413667651
 20
90.44403009467364
 30
0.0
 11
112.025413667651
 21
86.44403009467637
 31
0.0
1001
ACAD
1000
ASC_BOUNDS
1002
{
1070
    19
1002
}
  0
LINE
  5
4DD74
330
2
100
AcDbEntity
  8
0
  6
Continuous
 62
     7
100
AcDbLine
 10
80.26782744632056
 20
90.44403009467364
 30
0.0
 11
80.26782744632056
 21
86.44403009467367
 31
0.0
  0
LINE
  5
4DD75
330
2
100
AcDbEntity
  8
0
  6
ByBlock
 62
     0
100
AcDbLine
 10
80.26782744632056
 20
90.44403009467364
 30
0.0
 11
112.025413667651
 21
90.44403009467364
 31
0.0
  0
CIRCLE
  5
4DD76
330
2
100
AcDbEntity
  8
0
100
AcDbCircle
 10
177.2300326517644
 20
86.44403009467366
 30
0.0
 40
4.0
  0
ENDSEC
  0
SECTION
  2
OBJECTS
  0
DICTIONARY
  5
B
330
0
100
AcDbDictionary
281
     1
  3
ACAD_ASSOCNETWORK
350
4BEA5
  3
ACAD_CIP_PREVIOUS_PRODUCT_INFO
350
BE4
  3
ACAD_COLOR
350
3F
  3
ACAD_DETAILVIEWSTYLE
350
BDC
  3
ACAD_GROUP
350
3A
  3
ACAD_LAYOUT
350
17
  3
ACAD_MATERIAL
350
D
  3
ACAD_MLEADERSTYLE
350
42
  3
ACAD_MLINESTYLE
350
3B
  3
ACAD_PLOTSETTINGS
350
3C
  3
ACAD_PLOTSTYLENAME
350
A
  3
ACAD_SCALELIST
350
40
  3
ACAD_SECTIONVIEWSTYLE
350
BDA
  3
ACAD_TABLESTYLE
350
41
  3
ACAD_VISUALSTYLE
350
2F
  3
ACDB_RECOMPOSE_DATA
350
4DE85
  3
AcDbVariableDictionary
350
BB8
  3
AEC_PROPERTY_SET_DEFS
350
24C9
  0
DICTIONARY
  5
31
330
2C
100
AcDbDictionary
280
     1
281
     1
  0
DICTIONARY
  5
22
330
21
100
AcDbDictionary
280
     1
281
     1
  3
ACAD_LAYERSTATES
360
23
  0
DICTIONARY
  5
7
330
6
100
AcDbDictionary
280
     1
281
     1
  3
ADSK_XREC_LAYER_RECONCILED
360
8
  0
DICTIONARY
  5
3
330
2
100
AcDbDictionary
280
     1
281
     1
  3
ACAD_ASSOCNETWORK
360
4C1A5
  3
ACAD_SORTENTS
360
BB0
  0
DICTIONARY
  5
4DD87
330
4DD86
100
AcDbDictionary
280
     1
281
     1
  0
DICTIONARY
  5
4BEA5
102
{ACAD_REACTORS
330
B
102
}
330
B
100
AcDbDictionary
281
     1
  3
ACAD_ASSOCNETWORK
350
4BEA6
  0
XRECORD
  5
BE4
102
{ACAD_REACTORS
330
B
102
}
330
B
100
AcDbXrecord
280
     1
300
ACD
300
2014
300
ACD_F_S
  0
DICTIONARY
  5
3F
102
{ACAD_REACTORS
330
B
102
}
330
B
100
AcDbDictionary
281
     1
  0
DICTIONARY
  5
BDC
102
{ACAD_REACTORS
330
B
102
}
330
B
100
AcDbDictionary
281
     1
  3
Imperial24
350
283CD
  3
Metric50
350
BDD
  0
DICTIONARY
  5
3A
102
{ACAD_REACTORS
330
B
102
}
330
B
100
AcDbDictionary
281
     1
  0
DICTIONARY
  5
17
102
{ACAD_REACTORS
330
B
102
}
330
B
100
AcDbDictionary
281
     1
  3
Model
350
16
  3
배치1
350
1E
  0
DICTIONARY
  5
D
102
{ACAD_REACTORS
330
B
102
}
330
B
100
AcDbDictionary
281
     1
  3
ByBlock
350
3E
  3
ByLayer
350
3D
  3
Global
350
C
  0
DICTIONARY
  5
42
102
{ACAD_REACTORS
330
B
102
}
330
B
100
AcDbDictionary
281
     1
  3
Standard
350
BD9
  0
DICTIONARY
  5
3B
102
{ACAD_REACTORS
330
B
102
}
330
B
100
AcDbDictionary
281
     1
  3
Standard
350
43
  0
DICTIONARY
  5
3C
102
{ACAD_REACTORS
330
B
102
}
330
B
100
AcDbDictionary
281
     1
  0
ACDBDICTIONARYWDFLT
  5
A
102
{ACAD_REACTORS
330
B
102
}
330
B
100
AcDbDictionary
281
     1
  3
Normal
350
9
100
AcDbDictionaryWithDefault
340
9
  0
DICTIONARY
  5
40
102
{ACAD_REACTORS
330
B
102
}
330
B
100
AcDbDictionary
281
     1
  3
A0
350
48
  3
A1
350
49
  3
A2
350
4A
  3
A3
350
4B
  3
A4
350
4C
  3
A5
350
4D
  3
A6
350
4E
  3
A7
350
4F
  3
A8
350
50
  3
A9
350
51
  3
B0
350
52
  3
B1
350
53
  3
B2
350
54
  3
B3
350
55
  3
B4
350
56
  3
B5
350
57
  3
B6
350
58
  0
DICTIONARY
  5
BDA
102
{ACAD_REACTORS
330
B
102
}
330
B
100
AcDbDictionary
281
     1
  3
Imperial24
350
283CC
  3
Metric50
350
BDB
  0
DICTIONARY
  5
41
102
{ACAD_REACTORS
330
B
102
}
330
B
100
AcDbDictionary
281
     1
  3
Standard
350
44
  0
DICTIONARY
  5
2F
102
{ACAD_REACTORS
330
B
102
}
330
B
100
AcDbDictionary
281
     1
  3
2dWireframe
350
2E
  3
3D Hidden
350
1A64
  3
3dWireframe
350
47
  3
Basic
350
BC7
  3
Brighten
350
BCC
  3
ColorChange
350
BD0
  3
Conceptual
350
BCA
  3
Dim
350
BCB
  3
EdgeColorOff
350
BD8
  3
Facepattern
350
BCF
  3
Flat
350
BC3
  3
FlatWithEdges
350
BC4
  3
Gouraud
350
BC5
  3
GouraudWithEdges
350
BC6
  3
Hidden
350
BC9
  3
JitterOff
350
BD6
  3
Linepattern
350
BCE
  3
OverhangOff
350
BD7
  3
Realistic
350
46
  3
Shaded
350
BD5
  3
Shaded with edges
350
BD4
  3
Shades of Gray
350
BD1
  3
Sketchy
350
BD2
  3
Thicken
350
BCD
  3
Wireframe
350
BC8
  3
X-Ray
350
BD3
  0
XRECORD
  5
4DE85
102
{ACAD_REACTORS
330
B
102
}
330
B
100
AcDbXrecord
280
     1
 90
        1
330
44
330
BDB
330
BDD
330
283CC
330
283CD
  0
DICTIONARY
  5
BB8
102
{ACAD_REACTORS
330
B
102
}
330
B
100
AcDbDictionary
281
     1
  3
CANNOSCALE
350
BBE
  3
CMLEADERSTYLE
350
BBA
  3
CTABLESTYLE
350
BB9
  3
CVIEWDETAILSTYLE
350
BBB
  3
CVIEWSECTIONSTYLE
350
BBC
  3
DIMASSOC
350
C3B
  3
HIDETEXT
350
C39
  3
HPCOLOR
350
FF3
  3
INDEXCTL
350
C38
  3
LAYEREVAL
350
BC0
  3
LAYERNOTIFY
350
BC1
  3
LIGHTINGUNITS
350
BBF
  3
MSLTSCALE
350
BBD
  3
SOLIDHIST
350
C3C
  3
SORTENTS
350
C37
  0
DICTIONARY
  5
24C9
102
{ACAD_REACTORS
330
B
102
}
330
B
100
AcDbDictionary
281
     1
  0
DICTIONARY
  5
23
102
{ACAD_REACTORS
330
22
102
}
330
22
100
AcDbDictionary
281
     1
  0
XRECORD
  5
8
102
{ACAD_REACTORS
330
7
102
}
330
7
100
AcDbXrecord
280
     1
290
     1
  0
DICTIONARY
  5
4C1A5
102
{ACAD_REACTORS
330
3
102
}
330
3
100
AcDbDictionary
281
     1
  3
ACAD_ASSOCNETWORK
350
4C1A6
  0
SORTENTSTABLE
  5
BB0
102
{ACAD_REACTORS
330
3
102
}
330
3
100
AcDbSortentsTable
330
2
331
3D831
  5
3D831
331
3D82B
  5
3D82B
331
3D87F
  5
3D87F
331
3D858
  5
3D858
331
3D833
  5
3D833
331
3D85A
  5
3D85A
331
3D82D
  5
3D82D
331
3D887
  5
3D888
331
3D860
  5
3D860
331
3D862
  5
3D862
331
3D889
  5
3D88A
331
3D82F
  5
3D82F
331
3D85C
  5
3D85C
331
3D835
  5
3D835
331
3D837
  5
3D837
331
3D85E
  5
3D85E
331
3D88B
  5
3D88C
331
3D864
  5
3D864
331
3D866
  5
3D866
331
3D88D
  5
3D88E
331
3D839
  5
3D839
331
3FE03
  5
3FE03
331
3D83B
  5
3D83B
331
3D868
  5
3D868
331
3D841
  5
3D841
331
3D870
  5
3D870
331
3D86A
  5
3D86A
331
3D83D
  5
3D83D
331
3D843
  5
3D843
331
3D872
  5
3D872
331
3D845
  5
3D845
331
3D83F
  5
3D83F
331
3D86C
  5
3D86C
331
3D874
  5
3D874
331
3D86E
  5
3D86E
331
3D847
  5
3D847
331
3D876
  5
3D876
331
3D849
  5
3D849
331
3D851
  5
3D851
331
3D878
  5
3D878
331
3D84B
  5
3D84B
331
3D824
  5
3D824
331
3D880
  5
3D880
331
3D87A
  5
3D87A
331
3D84D
  5
3D84D
331
3D826
  5
3D826
331
3D853
  5
3D853
331
3D855
  5
3D855
331
3D87C
  5
3D87C
331
3D84F
  5
3D84F
331
3D828
  5
3D828
331
3D882
  5
3D882
331
3D830
  5
3D830
331
3D87E
  5
3D87E
331
3D82A
  5
3D82A
331
3D857
  5
3D857
331
3D832
  5
3D832
331
3D859
  5
3D859
331
3D82C
  5
3D82C
331
3D886
  5
3D887
331
3D861
  5
3D861
331
3D888
  5
3D889
331
3D82E
  5
3D82E
331
3D85B
  5
3D85B
331
3D834
  5
3D834
331
3D836
  5
3D836
331
3D85D
  5
3D85D
331
3D88A
  5
3D88B
331
3D863
  5
3D863
331
3D865
  5
3D865
331
3D88C
  5
3D88D
331
3D85F
  5
3D85F
331
3D838
  5
3D838
331
3FE04
  5
3FE04
331
3D83A
  5
3D83A
331
3D867
  5
3D867
331
3D840
  5
3D840
331
3D842
  5
3D842
331
3D869
  5
3D869
331
3D83C
  5
3D83C
331
3D871
  5
3D871
331
3D844
  5
3D844
331
3D83E
  5
3D83E
331
3D86B
  5
3D86B
331
3D846
  5
3D846
331
3D86D
  5
3D86D
331
3D873
  5
3D873
331
3D875
  5
3D875
331
3D848
  5
3D848
331
3D86F
  5
3D86F
331
3D850
  5
3D850
331
3D84A
  5
3D84A
331
3D877
  5
3D877
331
3D852
  5
3D852
331
3D879
  5
3D879
331
3D84C
  5
3D84C
331
3D825
  5
3D825
331
3D881
  5
3D881
331
3D827
  5
3D827
331
3D84E
  5
3D84E
331
3D87B
  5
3D87B
331
3D854
  5
3D854
331
3D856
  5
3D856
331
3D87D
  5
3D87D
331
3D829
  5
3D829
  0
ACDBASSOCNETWORK
  5
4BEA6
102
{ACAD_REACTORS
330
4BEA5
102
}
330
4BEA5
100
AcDbAssocAction
 90
        2
 90
        0
330
0
360
0
 90
        0
 90
        0
 90
        0
 90
        0
 90
        0
 90
        0
 90
        0
100
AcDbAssocNetwork
 90
        0
 90
        9
 90
        1
330
4C1A6
 90
        0
  0
ACDBDETAILVIEWSTYLE
  5
283CD
102
{ACAD_XDICTIONARY
360
4DE83
102
}
102
{ACAD_REACTORS
330
BDC
102
}
330
BDC
100
AcDbModelDocViewStyle
 70
     0
  3
Imperial24
290
     0
100
AcDbDetailViewStyle
 70
     0
 71
     0
 90
        3
 71
     1
340
25
 62
   256
 40
0.24
340
0
 62
   256
 40
0.24
300

 40
0.36
280
     3
 71
     2
340
14
 90
       25
 62
   256
 71
     3
340
25
 62
   256
 40
0.24
 90
        1
 40
0.75
 90
        1
300
%<\AcVar ViewType \f "%tc1">% %<\AcVar ViewDetailId>%\PSCALE %<\AcVar ViewScale \f "%sn">%
 71
     4
340
14
 90
       25
 62
   256
340
14
 90
       25
 62
   256
280
     0
  0
ACDBDETAILVIEWSTYLE
  5
BDD
102
{ACAD_XDICTIONARY
360
4DE7F
102
}
102
{ACAD_REACTORS
330
BDC
102
}
330
BDC
100
AcDbModelDocViewStyle
 70
     0
  3
Metric50
290
     0
100
AcDbDetailViewStyle
 70
     0
 71
     0
 90
        3
 71
     1
340
25
 62
   256
 40
5.0
340
0
 62
   256
 40
5.0
300

 40
0.0
280
     1
 71
     2
340
14
 90
       25
 62
   256
 71
     3
340
25
 62
   256
 40
5.0
 90
        0
 40
15.0
 90
        1
300
%<\AcVar ViewDetailId>% (%<\AcVar ViewScale \f "%sn">%)
 71
     4
340
14
 90
       25
 62
   256
340
14
 90
       25
 62
   256
280
     0
  0
LAYOUT
  5
16
102
{ACAD_XDICTIONARY
360
18
102
}
102
{ACAD_REACTORS
330
17
102
}
330
17
100
AcDbPlotSettings
  1

  2
DWG To PDF.pc3
  4
ISO_expand_A4_(297.00_x_210.00_MM)
  6

 40
5.793749809265136
 41
10.79374980926513
 42
5.79376220703125
 43
10.79374694824219
 44
297.0
 45
210.0
 46
10.74179700476176
 47
0.0
 48
214.2303289092835
 49
-5.650030662565313
140
426.8811481846322
141
146.1562857013982
142
1.0
143
0.8057125389846563
 70
 11956
 72
     1
 73
     0
 74
     4
  7
ksm0910.ctb
 75
     0
147
1.241137442468229
 76
     0
 77
     2
 78
   300
148
-214.2303289092835
149
5.650030662565313
100
AcDbLayout
  1
Model
 70
     1
 71
     0
 10
0.0
 20
0.0
 11
12.0
 21
9.0
 12
0.0
 22
0.0
 32
0.0
 14
0.0
 24
0.0
 34
0.0
 15
0.0
 25
0.0
 35
0.0
146
0.0
 13
0.0
 23
0.0
 33
0.0
 16
1.0
 26
0.0
 36
0.0
 17
0.0
 27
1.0
 37
0.0
 76
     0
330
2
331
2D
1001
ACAD_PSEXT
1000
DWG To PDF.pc3
1000
DWG To PDF
1000
파일
1000

1070
     0
  0
LAYOUT
  5
1E
102
{ACAD_XDICTIONARY
360
1F
102
}
102
{ACAD_REACTORS
330
17
102
}
330
17
100
AcDbPlotSettings
  1

  2
none_device
  4
ISO_A4_(210.00_x_297.00_MM)
  6

 40
7.5
 41
20.0
 42
7.5
 43
20.0
 44
210.0
 45
297.0
 46
0.0
 47
0.0
 48
0.0
 49
0.0
140
0.0
141
0.0
142
1.0
143
1.0
 70
   688
 72
     1
 73
     1
 74
     5
  7
ksm0910.ctb
 75
    16
147
1.0
 76
     0
 77
     2
 78
   300
148
0.0
149
0.0
100
AcDbLayout
  1
배치1
 70
     1
 71
     1
 10
-20.0
 20
-7.5
 11
277.0
 21
202.5
 12
0.0
 22
0.0
 32
0.0
 14
1.000000000000000E+20
 24
1.000000000000000E+20
 34
1.000000000000000E+20
 15
-1.000000000000000E+20
 25
-1.000000000000000E+20
 35
-1.000000000000000E+20
146
0.0
 13
0.0
 23
0.0
 33
0.0
 16
1.0
 26
0.0
 36
0.0
 17
0.0
 27
1.0
 37
0.0
 76
     0
330
1B
1001
ACAD_PSEXT
1000
없음
1000
없음
1000
해당 없음
1000
배치가 새로운 플로터 구성을 선택할 때까지 플롯되지 않습니다.
1070
     0
  0
MATERIAL
  5
3E
102
{ACAD_REACTORS
330
D
102
}
330
D
100
AcDbMaterial
  1
ByBlock
 94
       63
  0
MATERIAL
  5
3D
102
{ACAD_REACTORS
330
D
102
}
330
D
100
AcDbMaterial
  1
ByLayer
 94
       63
  0
MATERIAL
  5
C
102
{ACAD_XDICTIONARY
360
E
102
}
102
{ACAD_REACTORS
330
D
102
}
330
D
100
AcDbMaterial
  1
Global
 43
0.0007999999797903
 43
0.0
 43
0.0
 43
0.0
 43
0.0
 43
0.0007999999797903
 43
0.0
 43
0.0
 43
0.0
 43
0.0
 43
1.0
 43
0.0
 43
0.0
 43
0.0
 43
0.0
 43
1.0
 49
0.0007999999797903
 49
0.0
 49
0.0
 49
0.0
 49
0.0
 49
0.0007999999797903
 49
0.0
 49
0.0
 49
0.0
 49
0.0
 49
1.0
 49
0.0
 49
0.0
 49
0.0
 49
0.0
 49
1.0
142
0.0007999999797903
142
0.0
142
0.0
142
0.0
142
0.0
142
0.0007999999797903
142
0.0
142
0.0
142
0.0
142
0.0
142
1.0
142
0.0
142
0.0
142
0.0
142
0.0
142
1.0
144
0.0007999999797903
144
0.0
144
0.0
144
0.0
144
0.0
144
0.0007999999797903
144
0.0
144
0.0
144
0.0
144
0.0
144
1.0
144
0.0
144
0.0
144
0.0
144
0.0
144
1.0
 94
       63
1001
ACAD
1070
    -1
1070
     3
1070
     0
1000

1071
        0
1070
     0
  0
MLEADERSTYLE
  5
BD9
102
{ACAD_REACTORS
330
42
102
}
330
42
100
AcDbMLeaderStyle
179
     2
170
     2
171
     1
172
     0
 90
        2
 40
0.0
 41
0.0
173
     1
 91
-1023410173
340
28
 92
       -2
290
     1
 42
2.0
291
     1
 43
0.36
  3
Standard
 44
4.0
300

342
25
174
     1
178
     6
175
     1
176
     0
 93
-1023410174
 45
3.0
292
     0
297
     0
 46
4.0
 94
-1056964608
 47
1.0
 49
1.0
140
1.0
293
     1
141
0.0
294
     1
177
     0
142
1.0
295
     0
296
     0
143
0.125
271
     0
272
     9
273
     9
298
     1
  0
MLINESTYLE
  5
43
102
{ACAD_REACTORS
330
3B
102
}
330
3B
100
AcDbMlineStyle
  2
STANDARD
 70
     0
  3

 62
   256
 51
90.0
 52
90.0
 71
     2
 49
0.5
 62
   256
  6
BYLAYER
 49
-0.5
 62
   256
  6
BYLAYER
  0
ACDBPLACEHOLDER
  5
9
102
{ACAD_REACTORS
330
A
102
}
330
A
  0
SCALE
  5
48
102
{ACAD_REACTORS
330
40
102
}
330
40
100
AcDbScale
 70
     0
300
1:1
140
1.0
141
1.0
290
     1
  0
SCALE
  5
49
102
{ACAD_REACTORS
330
40
102
}
330
40
100
AcDbScale
 70
     0
300
1:2
140
1.0
141
2.0
290
     0
  0
SCALE
  5
4A
102
{ACAD_REACTORS
330
40
102
}
330
40
100
AcDbScale
 70
     0
300
1:4
140
1.0
141
4.0
290
     0
  0
SCALE
  5
4B
102
{ACAD_REACTORS
330
40
102
}
330
40
100
AcDbScale
 70
     0
300
1:5
140
1.0
141
5.0
290
     0
  0
SCALE
  5
4C
102
{ACAD_REACTORS
330
40
102
}
330
40
100
AcDbScale
 70
     0
300
1:8
140
1.0
141
8.0
290
     0
  0
SCALE
  5
4D
102
{ACAD_REACTORS
330
40
102
}
330
40
100
AcDbScale
 70
     0
300
1:10
140
1.0
141
10.0
290
     0
  0
SCALE
  5
4E
102
{ACAD_REACTORS
330
40
102
}
330
40
100
AcDbScale
 70
     0
300
1:16
140
1.0
141
16.0
290
     0
  0
SCALE
  5
4F
102
{ACAD_REACTORS
330
40
102
}
330
40
100
AcDbScale
 70
     0
300
1:20
140
1.0
141
20.0
290
     0
  0
SCALE
  5
50
102
{ACAD_REACTORS
330
40
102
}
330
40
100
AcDbScale
 70
     0
300
1:30
140
1.0
141
30.0
290
     0
  0
SCALE
  5
51
102
{ACAD_REACTORS
330
40
102
}
330
40
100
AcDbScale
 70
     0
300
1:40
140
1.0
141
40.0
290
     0
  0
SCALE
  5
52
102
{ACAD_REACTORS
330
40
102
}
330
40
100
AcDbScale
 70
     0
300
1:50
140
1.0
141
50.0
290
     0
  0
SCALE
  5
53
102
{ACAD_REACTORS
330
40
102
}
330
40
100
AcDbScale
 70
     0
300
1:100
140
1.0
141
100.0
290
     0
  0
SCALE
  5
54
102
{ACAD_REACTORS
330
40
102
}
330
40
100
AcDbScale
 70
     0
300
2:1
140
2.0
141
1.0
290
     0
  0
SCALE
  5
55
102
{ACAD_REACTORS
330
40
102
}
330
40
100
AcDbScale
 70
     0
300
4:1
140
4.0
141
1.0
290
     0
  0
SCALE
  5
56
102
{ACAD_REACTORS
330
40
102
}
330
40
100
AcDbScale
 70
     0
300
8:1
140
8.0
141
1.0
290
     0
  0
SCALE
  5
57
102
{ACAD_REACTORS
330
40
102
}
330
40
100
AcDbScale
 70
     0
300
10:1
140
10.0
141
1.0
290
     0
  0
SCALE
  5
58
102
{ACAD_REACTORS
330
40
102
}
330
40
100
AcDbScale
 70
     0
300
100:1
140
100.0
141
1.0
290
     0
  0
ACDBSECTIONVIEWSTYLE
  5
283CC
102
{ACAD_XDICTIONARY
360
4DE81
102
}
102
{ACAD_REACTORS
330
BDA
102
}
330
BDA
100
AcDbModelDocViewStyle
 70
     0
  3
Imperial24
290
     0
100
AcDbSectionViewStyle
 70
     0
 71
     0
 90
       78
 71
     1
340
25
 62
   256
 40
0.24
340
0
340
0
 62
   256
 40
0.24
300
I, O, Q, S, X, Z
 40
0.48
 90
        3
 40
0.18
 90
        1
 71
     2
340
14
 90
       25
 62
   256
340
14
 90
       50
 62
   256
 40
0.24
 40
0.0
 40
0.24
 71
     3
340
25
 62
   256
 40
0.24
 90
        1
 40
0.75
 90
        1
300
%<\AcVar ViewType \f "%tc1">% %<\AcVar ViewSectionStartId>%-%<\AcVar ViewSectionEndId>%\PSCALE %<\AcVar ViewScale \f "%sn">%
 71
     4
 62
   256
 62
   257
300
ANSI31
 40
1.0
 90
        0
290
     0
290
     0
 90
        6
 40
0.0
 40
1.570796326794896
 40
0.2617993877991494
 40
1.308996938995747
 40
-0.2617993877991494
 40
1.832595714594046
  0
ACDBSECTIONVIEWSTYLE
  5
BDB
102
{ACAD_XDICTIONARY
360
4DE7D
102
}
102
{ACAD_REACTORS
330
BDA
102
}
330
BDA
100
AcDbModelDocViewStyle
 70
     0
  3
Metric50
290
     0
100
AcDbSectionViewStyle
 70
     0
 71
     0
 90
      102
 71
     1
340
25
 62
   256
 40
5.0
340
0
340
0
 62
   256
 40
5.0
300
I, O, Q, S, X, Z
 40
10.0
 90
        0
 40
2.5
 90
        0
 71
     2
340
14
 90
       25
 62
   256
340
14
 90
       50
 62
   256
 40
5.0
 40
2.5
 40
5.0
 71
     3
340
25
 62
   256
 40
5.0
 90
        0
 40
15.0
 90
        1
300
%<\AcVar ViewSectionStartId>%-%<\AcVar ViewSectionEndId>% (%<\AcVar ViewScale \f "%sn">%)
 71
     4
 62
   256
 62
   257
300
ANSI31
 40
1.0
 90
        0
290
     0
290
     0
 90
        6
 40
0.0
 40
1.570796326794896
 40
0.2617993877991494
 40
1.308996938995747
 40
-0.2617993877991494
 40
1.832595714594046
  0
TABLESTYLE
  5
44
102
{ACAD_XDICTIONARY
360
45
102
}
102
{ACAD_REACTORS
330
41
102
}
330
41
100
AcDbTableStyle
280
     0
  3
Standard
 70
     0
 71
     0
 40
1.5
 41
1.5
280
     0
281
     0
  7
Standard
140
4.5
170
     2
 62
     0
 63
     7
283
     0
 90
      512
 91
        0
  1

274
    -2
284
     1
 64
     0
275
    -2
285
     1
 65
     0
276
    -2
286
     1
 66
     0
277
    -2
287
     1
 67
     0
278
    -2
288
     1
 68
     0
279
    -2
289
     1
 69
     0
  7
Standard
140
6.0
170
     5
 62
     0
 63
     7
283
     0
 90
      512
 91
        0
  1

274
    -2
284
     1
 64
     0
275
    -2
285
     1
 65
     0
276
    -2
286
     1
 66
     0
277
    -2
287
     1
 67
     0
278
    -2
288
     1
 68
     0
279
    -2
289
     1
 69
     0
  7
Standard
140
4.5
170
     5
 62
     0
 63
     7
283
     0
 90
      512
 91
        0
  1

274
    -2
284
     1
 64
     0
275
    -2
285
     1
 65
     0
276
    -2
286
     1
 66
     0
277
    -2
287
     1
 67
     0
278
    -2
288
     1
 68
     0
279
    -2
289
     1
 69
     0
  0
VISUALSTYLE
  5
2E
102
{ACAD_REACTORS
330
2F
102
}
330
2F
100
AcDbVisualStyle
  2
2dWireframe
 70
     4
177
     3
291
     0
 70
    58
 90
        0
176
     1
 90
        2
176
     1
 90
        1
176
     1
 90
        0
176
     1
 40
0.6
176
     1
 40
30.0
176
     1
 62
     7
176
     1
 90
        1
176
     1
 90
        4
176
     1
 62
     7
176
     1
 62
   257
176
     1
 90
        1
176
     1
 90
        1
176
     1
 40
1.0
176
     1
 90
        0
176
     1
 62
   257
176
     1
 40
1.0
176
     1
 90
        1
176
     1
 90
        6
176
     1
 90
        2
176
     1
 62
     7
176
     1
 90
        5
176
     1
 90
        0
176
     1
 90
        0
176
     1
290
     0
176
     1
 90
        1
176
     1
 40
0.0
176
     1
 90
        0
176
     1
290
     1
176
     1
290
     1
176
     1
290
     0
176
     1
290
     0
176
     1
290
     0
176
     1
290
     0
176
     1
290
     0
176
     1
290
     0
176
     1
290
     0
176
     1
 90
       50
176
     1
 40
0.0
176
     1
 40
1.0
176
     1
 90
        0
176
     1
 62
    18
420
        0
176
     1
 90
       50
176
     1
 90
        3
176
     1
 62
     5
420
      255
176
     1
290
     0
176
     1
 90
       50
176
     1
 90
       50
176
     1
 90
       50
176
     1
290
     0
176
     1
 90
       50
176
     1
 62
   256
176
     0
 40
1.0
176
     0
 90
        2
176
     1
  1
strokes_ogs.tif
176
     1
290
     0
176
     1
 40
1.0
176
     1
 40
1.0
176
     1
  0
VISUALSTYLE
  5
1A64
102
{ACAD_REACTORS
330
2F
102
}
330
2F
100
AcDbVisualStyle
  2
3D Hidden
 70
     6
177
     3
291
     0
 70
    58
 90
        1
176
     1
 90
        2
176
     1
 90
        2
176
     1
 90
        0
176
     1
 40
0.6
176
     1
 40
30.0
176
     1
 62
     7
176
     1
 90
        2
176
     1
 90
        2
176
     1
 62
     7
176
     1
 62
   257
176
     1
 90
        2
176
     1
 90
        1
176
     1
 40
40.0
176
     1
 90
        0
176
     1
 62
   257
176
     1
 40
1.0
176
     1
 90
        1
176
     1
 90
        6
176
     1
 90
        2
176
     1
 62
     7
176
     1
 90
        3
176
     1
 90
        0
176
     1
 90
        0
176
     1
290
     0
176
     1
 90
        1
176
     1
 40
0.0
176
     1
 90
        0
176
     1
290
     0
176
     1
290
     1
176
     1
290
     1
176
     1
290
     0
176
     1
290
     0
176
     1
290
     0
176
     1
290
     0
176
     1
290
     0
176
     1
290
     0
176
     1
 90
       50
176
     1
 40
0.0
176
     1
 40
1.0
176
     1
 90
        0
176
     1
 62
    18
420
        0
176
     1
 90
       50
176
     1
 90
        3
176
     1
 62
     5
420
      255
176
     1
290
     0
176
     1
 90
       50
176
     1
 90
       50
176
     1
 90
       50
176
     1
290
     0
176
     1
 90
       50
176
     1
 62
   256
176
     0
 40
1.0
176
     0
 90
        2
176
     1
  1
strokes_ogs.tif
176
     1
290
     0
176
     1
 40
1.0
176
     1
 40
1.0
176
     1
  0
VISUALSTYLE
  5
47
102
{ACAD_REACTORS
330
2F
102
}
330
2F
100
AcDbVisualStyle
  2
3dWireframe
 70
     5
177
     3
291
     0
 70
    58
 90
        0
176
     1
 90
        2
176
     1
 90
        1
176
     1
 90
        0
176
     1
 40
0.6
176
     1
 40
30.0
176
     1
 62
     7
176
     1
 90
        1
176
     1
 90
        4
176
     1
 62
     7
176
     1
 62
   257
176
     1
 90
        1
176
     1
 90
        1
176
     1
 40
1.0
176
     1
 90
        0
176
     1
 62
   257
176
     1
 40
1.0
176
     1
 90
        1
176
     1
 90
        6
176
     1
 90
        2
176
     1
 62
     7
176
     1
 90
        5
176
     1
 90
        0
176
     1
 90
        0
176
     1
290
     0
176
     1
 90
        1
176
     1
 40
0.0
176
     1
 90
        0
176
     1
290
     0
176
     1
290
     1
176
     1
290
     1
176
     1
290
     0
176
     1
290
     0
176
     1
290
     0
176
     1
290
     0
176
     1
290
     0
176
     1
290
     0
176
     1
 90
       50
176
     1
 40
0.0
176
     1
 40
1.0
176
     1
 90
        0
176
     1
 62
    18
420
        0
176
     1
 90
       50
176
     1
 90
        3
176
     1
 62
     5
420
      255
176
     1
290
     0
176
     1
 90
       50
176
     1
 90
       50
176
     1
 90
       50
176
     1
290
     0
176
     1
 90
       50
176
     1
 62
   256
176
     0
 40
1.0
176
     0
 90
        2
176
     1
  1
strokes_ogs.tif
176
     1
290
     0
176
     1
 40
1.0
176
     1
 40
1.0
176
     1
  0
VISUALSTYLE
  5
BC7
102
{ACAD_REACTORS
330
2F
102
}
330
2F
100
AcDbVisualStyle
  2
Basic
 70
     7
177
     3
291
     1
 70
    58
 90
        1
176
     1
 90
        0
176
     1
 90
        1
176
     1
 90
        0
176
     1
 40
0.6
176
     1
 40
30.0
176
     1
 62
     7
176
     1
 90
        0
176
     1
 90
        4
176
     1
 62
     7
176
     1
 62
   257
176
     1
 90
        1
176
     1
 90
        1
176
     1
 40
1.0
176
     1
 90
        8
176
     1
 62
     7
176
     1
 40
1.0
176
     1
 90
        1
176
     1
 90
        6
176
     1
 90
        2
176
     1
 62
     7
176
     1
 90
        5
176
     1
 90
        0
176
     1
 90
        0
176
     1
290
     0
176
     1
 90
        1
176
     1
 40
0.0
176
     1
 90
        0
176
     1
290
     0
176
     1
290
     1
176
     1
290
     1
176
     1
290
     0
176
     1
290
     0
176
     1
290
     0
176
     1
290
     0
176
     1
290
     0
176
     1
290
     0
176
     1
 90
       50
176
     1
 40
0.0
176
     1
 40
1.0
176
     1
 90
        0
176
     1
 62
    18
420
        0
176
     1
 90
       50
176
     1
 90
        3
176
     1
 62
     5
420
      255
176
     1
290
     0
176
     1
 90
       50
176
     1
 90
       50
176
     1
 90
       50
176
     1
290
     0
176
     1
 90
       50
176
     1
 62
   256
176
     0
 40
1.0
176
     0
 90
        2
176
     1
  1
strokes_ogs.tif
176
     1
290
     0
176
     1
 40
1.0
176
     1
 40
1.0
176
     1
  0
VISUALSTYLE
  5
BCC
102
{ACAD_REACTORS
330
2F
102
}
330
2F
100
AcDbVisualStyle
  2
Brighten
 70
    12
177
     3
291
     1
 70
    58
 90
        2
176
     1
 90
        2
176
     1
 90
        0
176
     1
 90
        0
176
     1
 40
0.6
176
     1
 40
30.0
176
     1
 62
     7
176
     1
 90
        1
176
     1
 90
        4
176
     1
 62
     7
176
     1
 62
   257
176
     1
 90
        1
176
     1
 90
        1
176
     1
 40
1.0
176
     1
 90
        8
176
     1
 62
     7
176
     1
 40
1.0
176
     1
 90
        1
176
     1
 90
        6
176
     1
 90
        2
176
     1
 62
     7
176
     1
 90
        5
176
     1
 90
        0
176
     1
 90
        0
176
     1
290
     0
176
     1
 90
        1
176
     1
 40
50.0
176
     1
 90
        0
176
     1
290
     0
176
     1
290
     1
176
     1
290
     1
176
     1
290
     0
176
     1
290
     0
176
     1
290
     0
176
     1
290
     0
176
     1
290
     0
176
     1
290
     0
176
     1
 90
       50
176
     1
 40
0.0
176
     1
 40
1.0
176
     1
 90
        0
176
     1
 62
    18
420
        0
176
     1
 90
       50
176
     1
 90
        3
176
     1
 62
     5
420
      255
176
     1
290
     0
176
     1
 90
       50
176
     1
 90
       50
176
     1
 90
       50
176
     1
290
     0
176
     1
 90
       50
176
     1
 62
   256
176
     0
 40
1.0
176
     0
 90
        2
176
     1
  1
strokes_ogs.tif
176
     1
290
     0
176
     1
 40
1.0
176
     1
 40
1.0
176
     1
  0
VISUALSTYLE
  5
BD0
102
{ACAD_REACTORS
330
2F
102
}
330
2F
100
AcDbVisualStyle
  2
ColorChange
 70
    16
177
     3
291
     1
 70
    58
 90
        2
176
     1
 90
        2
176
     1
 90
        3
176
     1
 90
        0
176
     1
 40
0.6
176
     1
 40
30.0
176
     1
 62
     8
176
     1
 90
        1
176
     1
 90
        4
176
     1
 62
     7
176
     1
 62
   257
176
     1
 90
        1
176
     1
 90
        1
176
     1
 40
1.0
176
     1
 90
        8
176
     1
 62
     8
176
     1
 40
1.0
176
     1
 90
        1
176
     1
 90
        6
176
     1
 90
        2
176
     1
 62
     7
176
     1
 90
        5
176
     1
 90
        0
176
     1
 90
        0
176
     1
290
     0
176
     1
 90
        1
176
     1
 40
0.0
176
     1
 90
        0
176
     1
290
     0
176
     1
290
     1
176
     1
290
     1
176
     1
290
     0
176
     1
290
     0
176
     1
290
     0
176
     1
290
     0
176
     1
290
     0
176
     1
290
     0
176
     1
 90
       50
176
     1
 40
0.0
176
     1
 40
1.0
176
     1
 90
        0
176
     1
 62
    18
420
        0
176
     1
 90
       50
176
     1
 90
        3
176
     1
 62
     5
420
      255
176
     1
290
     0
176
     1
 90
       50
176
     1
 90
       50
176
     1
 90
       50
176
     1
290
     0
176
     1
 90
       50
176
     1
 62
   256
176
     0
 40
1.0
176
     0
 90
        2
176
     1
  1
strokes_ogs.tif
176
     1
290
     0
176
     1
 40
1.0
176
     1
 40
1.0
176
     1
  0
VISUALSTYLE
  5
BCA
102
{ACAD_REACTORS
330
2F
102
}
330
2F
100
AcDbVisualStyle
  2
Conceptual
 70
     9
177
     3
291
     0
 70
    58
 90
        3
176
     1
 90
        2
176
     1
 90
        0
176
     1
 90
        0
176
     1
 40
0.6
176
     1
 40
30.0
176
     1
 62
     7
176
     1
 90
        2
176
     1
 90
        2
176
     1
 62
     7
176
     1
 62
   257
176
     1
 90
        1
176
     1
 90
        1
176
     1
 40
179.0
176
     1
 90
        8
176
     1
 62
     7
176
     1
 40
1.0
176
     1
 90
        1
176
     1
 90
        6
176
     1
 90
        2
176
     1
 62
     7
176
     1
 90
        3
176
     1
 90
        0
176
     1
 90
        0
176
     1
290
     0
176
     1
 90
        1
176
     1
 40
0.0
176
     1
 90
        0
176
     1
290
     0
176
     1
290
     1
176
     1
290
     1
176
     1
290
     0
176
     1
290
     0
176
     1
290
     0
176
     1
290
     0
176
     1
290
     0
176
     1
290
     0
176
     1
 90
       50
176
     1
 40
0.0
176
     1
 40
1.0
176
     1
 90
        0
176
     1
 62
    18
420
        0
176
     1
 90
       50
176
     1
 90
        3
176
     1
 62
     5
420
      255
176
     1
290
     0
176
     1
 90
       50
176
     1
 90
       50
176
     1
 90
       50
176
     1
290
     0
176
     1
 90
       50
176
     1
 62
   256
176
     0
 40
1.0
176
     0
 90
        2
176
     1
  1
strokes_ogs.tif
176
     1
290
     0
176
     1
 40
1.0
176
     1
 40
1.0
176
     1
  0
VISUALSTYLE
  5
BCB
102
{ACAD_REACTORS
330
2F
102
}
330
2F
100
AcDbVisualStyle
  2
Dim
 70
    11
177
     3
291
     1
 70
    58
 90
        2
176
     1
 90
        2
176
     1
 90
        0
176
     1
 90
        0
176
     1
 40
0.6
176
     1
 40
30.0
176
     1
 62
     7
176
     1
 90
        1
176
     1
 90
        4
176
     1
 62
     7
176
     1
 62
   257
176
     1
 90
        1
176
     1
 90
        1
176
     1
 40
1.0
176
     1
 90
        8
176
     1
 62
     7
176
     1
 40
1.0
176
     1
 90
        1
176
     1
 90
        6
176
     1
 90
        2
176
     1
 62
     7
176
     1
 90
        5
176
     1
 90
        0
176
     1
 90
        0
176
     1
290
     0
176
     1
 90
        1
176
     1
 40
-50.0
176
     1
 90
        0
176
     1
290
     0
176
     1
290
     1
176
     1
290
     1
176
     1
290
     0
176
     1
290
     0
176
     1
290
     0
176
     1
290
     0
176
     1
290
     0
176
     1
290
     0
176
     1
 90
       50
176
     1
 40
0.0
176
     1
 40
1.0
176
     1
 90
        0
176
     1
 62
    18
420
        0
176
     1
 90
       50
176
     1
 90
        3
176
     1
 62
     5
420
      255
176
     1
290
     0
176
     1
 90
       50
176
     1
 90
       50
176
     1
 90
       50
176
     1
290
     0
176
     1
 90
       50
176
     1
 62
   256
176
     0
 40
1.0
176
     0
 90
        2
176
     1
  1
strokes_ogs.tif
176
     1
290
     0
176
     1
 40
1.0
176
     1
 40
1.0
176
     1
  0
VISUALSTYLE
  5
BD8
102
{ACAD_REACTORS
330
2F
102
}
330
2F
100
AcDbVisualStyle
  2
EdgeColorOff
 70
    22
177
     3
291
     1
 70
    58
 90
        2
176
     0
 90
        2
176
     0
 90
        0
176
     0
 90
        0
176
     0
 40
0.6
176
     0
 40
30.0
176
     0
 62
     7
176
     0
 90
        1
176
     0
 90
        4
176
     0
 62
     7
176
     0
 62
   257
176
     0
 90
        1
176
     0
 90
        1
176
     0
 40
1.0
176
     0
 90
        8
176
     2
 62
     7
176
     0
 40
1.0
176
     0
 90
        1
176
     0
 90
        6
176
     0
 90
        2
176
     0
 62
     7
176
     0
 90
        5
176
     0
 90
        0
176
     0
 90
        0
176
     0
290
     0
176
     0
 90
        1
176
     0
 40
0.0
176
     0
 90
        0
176
     0
290
     0
176
     0
290
     1
176
     0
290
     1
176
     0
290
     0
176
     0
290
     0
176
     0
290
     0
176
     0
290
     0
176
     0
290
     0
176
     0
290
     0
176
     0
 90
       50
176
     0
 40
0.0
176
     0
 40
1.0
176
     0
 90
        0
176
     0
 62
    18
420
        0
176
     0
 90
       50
176
     0
 90
        3
176
     0
 62
     5
420
      255
176
     0
290
     0
176
     0
 90
       50
176
     0
 90
       50
176
     0
 90
       50
176
     0
290
     0
176
     0
 90
       50
176
     0
 62
   256
176
     0
 40
1.0
176
     0
 90
        2
176
     0
  1
strokes_ogs.tif
176
     0
290
     0
176
     0
 40
1.0
176
     0
 40
1.0
176
     0
  0
VISUALSTYLE
  5
BCF
102
{ACAD_REACTORS
330
2F
102
}
330
2F
100
AcDbVisualStyle
  2
Facepattern
 70
    15
177
     3
291
     1
 70
    58
 90
        2
176
     1
 90
        2
176
     1
 90
        0
176
     1
 90
        0
176
     1
 40
0.6
176
     1
 40
30.0
176
     1
 62
     7
176
     1
 90
        1
176
     1
 90
        4
176
     1
 62
     7
176
     1
 62
   257
176
     1
 90
        1
176
     1
 90
        1
176
     1
 40
1.0
176
     1
 90
        8
176
     1
 62
     7
176
     1
 40
1.0
176
     1
 90
        1
176
     1
 90
        6
176
     1
 90
        2
176
     1
 62
     7
176
     1
 90
        5
176
     1
 90
        0
176
     1
 90
        0
176
     1
290
     0
176
     1
 90
        1
176
     1
 40
0.0
176
     1
 90
        0
176
     1
290
     0
176
     1
290
     1
176
     1
290
     1
176
     1
290
     0
176
     1
290
     0
176
     1
290
     0
176
     1
290
     0
176
     1
290
     0
176
     1
290
     0
176
     1
 90
       50
176
     1
 40
0.0
176
     1
 40
1.0
176
     1
 90
        0
176
     1
 62
    18
420
        0
176
     1
 90
       50
176
     1
 90
        3
176
     1
 62
     5
420
      255
176
     1
290
     0
176
     1
 90
       50
176
     1
 90
       50
176
     1
 90
       50
176
     1
290
     0
176
     1
 90
       50
176
     1
 62
   256
176
     0
 40
1.0
176
     0
 90
        2
176
     1
  1
strokes_ogs.tif
176
     1
290
     0
176
     1
 40
1.0
176
     1
 40
1.0
176
     1
  0
VISUALSTYLE
  5
BC3
102
{ACAD_REACTORS
330
2F
102
}
330
2F
100
AcDbVisualStyle
  2
Flat
 70
     0
177
     3
291
     1
 70
    58
 90
        2
176
     1
 90
        1
176
     1
 90
        1
176
     1
 90
        2
176
     1
 40
0.6
176
     1
 40
30.0
176
     1
 62
     7
176
     1
 90
        0
176
     1
 90
        0
176
     1
 62
     7
176
     1
 62
   257
176
     1
 90
        1
176
     1
 90
        1
176
     1
 40
1.0
176
     1
 90
        8
176
     1
 62
     7
176
     1
 40
1.0
176
     1
 90
        1
176
     1
 90
        6
176
     1
 90
        2
176
     1
 62
     7
176
     1
 90
        5
176
     1
 90
        0
176
     1
 90
        0
176
     1
290
     0
176
     1
 90
       13
176
     1
 40
0.0
176
     1
 90
        0
176
     1
290
     0
176
     1
290
     1
176
     1
290
     1
176
     1
290
     0
176
     1
290
     0
176
     1
290
     0
176
     1
290
     0
176
     1
290
     0
176
     1
290
     0
176
     1
 90
       50
176
     1
 40
0.0
176
     1
 40
1.0
176
     1
 90
        0
176
     1
 62
    18
420
        0
176
     1
 90
       50
176
     1
 90
        3
176
     1
 62
     5
420
      255
176
     1
290
     0
176
     1
 90
       50
176
     1
 90
       50
176
     1
 90
       50
176
     1
290
     0
176
     1
 90
       50
176
     1
 62
   256
176
     0
 40
1.0
176
     0
 90
        2
176
     1
  1
strokes_ogs.tif
176
     1
290
     0
176
     1
 40
1.0
176
     1
 40
1.0
176
     1
  0
VISUALSTYLE
  5
BC4
102
{ACAD_REACTORS
330
2F
102
}
330
2F
100
AcDbVisualStyle
  2
FlatWithEdges
 70
     1
177
     3
291
     1
 70
    58
 90
        2
176
     1
 90
        1
176
     1
 90
        1
176
     1
 90
        2
176
     1
 40
0.6
176
     1
 40
30.0
176
     1
 62
     7
176
     1
 90
        1
176
     1
 90
        0
176
     1
 62
     7
176
     1
 62
   257
176
     1
 90
        1
176
     1
 90
        1
176
     1
 40
1.0
176
     1
 90
        0
176
     1
 62
   257
176
     1
 40
1.0
176
     1
 90
        1
176
     1
 90
        6
176
     1
 90
        2
176
     1
 62
     7
176
     1
 90
        5
176
     1
 90
        0
176
     1
 90
        0
176
     1
290
     0
176
     1
 90
       13
176
     1
 40
0.0
176
     1
 90
        0
176
     1
290
     0
176
     1
290
     1
176
     1
290
     1
176
     1
290
     0
176
     1
290
     0
176
     1
290
     0
176
     1
290
     0
176
     1
290
     0
176
     1
290
     0
176
     1
 90
       50
176
     1
 40
0.0
176
     1
 40
1.0
176
     1
 90
        0
176
     1
 62
    18
420
        0
176
     1
 90
       50
176
     1
 90
        3
176
     1
 62
     5
420
      255
176
     1
290
     0
176
     1
 90
       50
176
     1
 90
       50
176
     1
 90
       50
176
     1
290
     0
176
     1
 90
       50
176
     1
 62
   256
176
     0
 40
1.0
176
     0
 90
        2
176
     1
  1
strokes_ogs.tif
176
     1
290
     0
176
     1
 40
1.0
176
     1
 40
1.0
176
     1
  0
VISUALSTYLE
  5
BC5
102
{ACAD_REACTORS
330
2F
102
}
330
2F
100
AcDbVisualStyle
  2
Gouraud
 70
     2
177
     3
291
     1
 70
    58
 90
        2
176
     1
 90
        2
176
     1
 90
        1
176
     1
 90
        2
176
     1
 40
0.6
176
     1
 40
30.0
176
     1
 62
     7
176
     1
 90
        0
176
     1
 90
        0
176
     1
 62
     7
176
     1
 62
   257
176
     1
 90
        1
176
     1
 90
        1
176
     1
 40
1.0
176
     1
 90
        0
176
     1
 62
     7
176
     1
 40
1.0
176
     1
 90
        1
176
     1
 90
        6
176
     1
 90
        2
176
     1
 62
     7
176
     1
 90
        5
176
     1
 90
        0
176
     1
 90
        0
176
     1
290
     0
176
     1
 90
       13
176
     1
 40
0.0
176
     1
 90
        0
176
     1
290
     0
176
     1
290
     1
176
     1
290
     1
176
     1
290
     0
176
     1
290
     0
176
     1
290
     0
176
     1
290
     0
176
     1
290
     0
176
     1
290
     0
176
     1
 90
       50
176
     1
 40
0.0
176
     1
 40
1.0
176
     1
 90
        0
176
     1
 62
    18
420
        0
176
     1
 90
       50
176
     1
 90
        3
176
     1
 62
     5
420
      255
176
     1
290
     0
176
     1
 90
       50
176
     1
 90
       50
176
     1
 90
       50
176
     1
290
     0
176
     1
 90
       50
176
     1
 62
   256
176
     0
 40
1.0
176
     0
 90
        2
176
     1
  1
strokes_ogs.tif
176
     1
290
     0
176
     1
 40
1.0
176
     1
 40
1.0
176
     1
  0
VISUALSTYLE
  5
BC6
102
{ACAD_REACTORS
330
2F
102
}
330
2F
100
AcDbVisualStyle
  2
GouraudWithEdges
 70
     3
177
     3
291
     1
 70
    58
 90
        2
176
     1
 90
        2
176
     1
 90
        1
176
     1
 90
        2
176
     1
 40
0.6
176
     1
 40
30.0
176
     1
 62
     7
176
     1
 90
        1
176
     1
 90
        0
176
     1
 62
     7
176
     1
 62
   257
176
     1
 90
        1
176
     1
 90
        1
176
     1
 40
1.0
176
     1
 90
        0
176
     1
 62
   257
176
     1
 40
1.0
176
     1
 90
        1
176
     1
 90
        6
176
     1
 90
        2
176
     1
 62
     7
176
     1
 90
        5
176
     1
 90
        0
176
     1
 90
        0
176
     1
290
     0
176
     1
 90
       13
176
     1
 40
0.0
176
     1
 90
        0
176
     1
290
     0
176
     1
290
     1
176
     1
290
     1
176
     1
290
     0
176
     1
290
     0
176
     1
290
     0
176
     1
290
     0
176
     1
290
     0
176
     1
290
     0
176
     1
 90
       50
176
     1
 40
0.0
176
     1
 40
1.0
176
     1
 90
        0
176
     1
 62
    18
420
        0
176
     1
 90
       50
176
     1
 90
        3
176
     1
 62
     5
420
      255
176
     1
290
     0
176
     1
 90
       50
176
     1
 90
       50
176
     1
 90
       50
176
     1
290
     0
176
     1
 90
       50
176
     1
 62
   256
176
     0
 40
1.0
176
     0
 90
        2
176
     1
  1
strokes_ogs.tif
176
     1
290
     0
176
     1
 40
1.0
176
     1
 40
1.0
176
     1
  0
VISUALSTYLE
  5
BC9
102
{ACAD_REACTORS
330
2F
102
}
330
2F
100
AcDbVisualStyle
  2
Hidden
 70
     6
177
     3
291
     0
 70
    58
 90
        1
176
     1
 90
        2
176
     1
 90
        2
176
     1
 90
        0
176
     1
 40
0.6
176
     1
 40
30.0
176
     1
 62
     7
176
     1
 90
        2
176
     1
 90
        2
176
     1
 62
     7
176
     1
 62
   257
176
     1
 90
        2
176
     1
 90
        1
176
     1
 40
40.0
176
     1
 90
        0
176
     1
 62
   257
176
     1
 40
1.0
176
     1
 90
        1
176
     1
 90
        6
176
     1
 90
        2
176
     1
 62
     7
176
     1
 90
        3
176
     1
 90
        0
176
     1
 90
        0
176
     1
290
     0
176
     1
 90
        1
176
     1
 40
0.0
176
     1
 90
        0
176
     1
290
     0
176
     1
290
     1
176
     1
290
     1
176
     1
290
     0
176
     1
290
     0
176
     1
290
     0
176
     1
290
     0
176
     1
290
     0
176
     1
290
     0
176
     1
 90
       50
176
     1
 40
0.0
176
     1
 40
1.0
176
     1
 90
        0
176
     1
 62
    18
420
        0
176
     1
 90
       50
176
     1
 90
        3
176
     1
 62
     5
420
      255
176
     1
290
     0
176
     1
 90
       50
176
     1
 90
       50
176
     1
 90
       50
176
     1
290
     0
176
     1
 90
       50
176
     1
 62
   256
176
     0
 40
1.0
176
     0
 90
        2
176
     1
  1
strokes_ogs.tif
176
     1
290
     0
176
     1
 40
1.0
176
     1
 40
1.0
176
     1
  0
VISUALSTYLE
  5
BD6
102
{ACAD_REACTORS
330
2F
102
}
330
2F
100
AcDbVisualStyle
  2
JitterOff
 70
    20
177
     3
291
     1
 70
    58
 90
        2
176
     0
 90
        2
176
     0
 90
        0
176
     0
 90
        0
176
     0
 40
0.6
176
     0
 40
30.0
176
     0
 62
     7
176
     0
 90
        1
176
     0
 90
        4
176
     0
 62
     7
176
     0
 62
   257
176
     0
 90
        1
176
     0
 90
        1
176
     0
 40
1.0
176
     0
 90
       10
176
     2
 62
     7
176
     0
 40
1.0
176
     0
 90
        1
176
     0
 90
        6
176
     0
 90
        2
176
     0
 62
     7
176
     0
 90
        5
176
     0
 90
        0
176
     0
 90
        0
176
     0
290
     0
176
     0
 90
        1
176
     0
 40
0.0
176
     0
 90
        0
176
     0
290
     0
176
     0
290
     1
176
     0
290
     1
176
     0
290
     0
176
     0
290
     0
176
     0
290
     0
176
     0
290
     0
176
     0
290
     0
176
     0
290
     0
176
     0
 90
       50
176
     0
 40
0.0
176
     0
 40
1.0
176
     0
 90
        0
176
     0
 62
    18
420
        0
176
     0
 90
       50
176
     0
 90
        3
176
     0
 62
     5
420
      255
176
     0
290
     0
176
     0
 90
       50
176
     0
 90
       50
176
     0
 90
       50
176
     0
290
     0
176
     0
 90
       50
176
     0
 62
   256
176
     0
 40
1.0
176
     0
 90
        2
176
     0
  1
strokes_ogs.tif
176
     0
290
     0
176
     0
 40
1.0
176
     0
 40
1.0
176
     0
  0
VISUALSTYLE
  5
BCE
102
{ACAD_REACTORS
330
2F
102
}
330
2F
100
AcDbVisualStyle
  2
Linepattern
 70
    14
177
     3
291
     1
 70
    58
 90
        2
176
     1
 90
        2
176
     1
 90
        0
176
     1
 90
        0
176
     1
 40
0.6
176
     1
 40
30.0
176
     1
 62
     7
176
     1
 90
        1
176
     1
 90
        4
176
     1
 62
     7
176
     1
 62
   257
176
     1
 90
        7
176
     1
 90
        7
176
     1
 40
1.0
176
     1
 90
        8
176
     1
 62
     7
176
     1
 40
1.0
176
     1
 90
        1
176
     1
 90
        6
176
     1
 90
        2
176
     1
 62
     7
176
     1
 90
        5
176
     1
 90
        0
176
     1
 90
        0
176
     1
290
     0
176
     1
 90
        1
176
     1
 40
0.0
176
     1
 90
        0
176
     1
290
     0
176
     1
290
     1
176
     1
290
     1
176
     1
290
     0
176
     1
290
     0
176
     1
290
     0
176
     1
290
     0
176
     1
290
     0
176
     1
290
     0
176
     1
 90
       50
176
     1
 40
0.0
176
     1
 40
1.0
176
     1
 90
        0
176
     1
 62
    18
420
        0
176
     1
 90
       50
176
     1
 90
        3
176
     1
 62
     5
420
      255
176
     1
290
     0
176
     1
 90
       50
176
     1
 90
       50
176
     1
 90
       50
176
     1
290
     0
176
     1
 90
       50
176
     1
 62
   256
176
     0
 40
1.0
176
     0
 90
        2
176
     1
  1
strokes_ogs.tif
176
     1
290
     0
176
     1
 40
1.0
176
     1
 40
1.0
176
     1
  0
VISUALSTYLE
  5
BD7
102
{ACAD_REACTORS
330
2F
102
}
330
2F
100
AcDbVisualStyle
  2
OverhangOff
 70
    21
177
     3
291
     1
 70
    58
 90
        2
176
     0
 90
        2
176
     0
 90
        0
176
     0
 90
        0
176
     0
 40
0.6
176
     0
 40
30.0
176
     0
 62
     7
176
     0
 90
        1
176
     0
 90
        4
176
     0
 62
     7
176
     0
 62
   257
176
     0
 90
        1
176
     0
 90
        1
176
     0
 40
1.0
176
     0
 90
        9
176
     2
 62
     7
176
     0
 40
1.0
176
     0
 90
        1
176
     0
 90
        6
176
     0
 90
        2
176
     0
 62
     7
176
     0
 90
        5
176
     0
 90
        0
176
     0
 90
        0
176
     0
290
     0
176
     0
 90
        1
176
     0
 40
0.0
176
     0
 90
        0
176
     0
290
     0
176
     0
290
     1
176
     0
290
     1
176
     0
290
     0
176
     0
290
     0
176
     0
290
     0
176
     0
290
     0
176
     0
290
     0
176
     0
290
     0
176
     0
 90
       50
176
     0
 40
0.0
176
     0
 40
1.0
176
     0
 90
        0
176
     0
 62
    18
420
        0
176
     0
 90
       50
176
     0
 90
        3
176
     0
 62
     5
420
      255
176
     0
290
     0
176
     0
 90
       50
176
     0
 90
       50
176
     0
 90
       50
176
     0
290
     0
176
     0
 90
       50
176
     0
 62
   256
176
     0
 40
1.0
176
     0
 90
        2
176
     0
  1
strokes_ogs.tif
176
     0
290
     0
176
     0
 40
1.0
176
     0
 40
1.0
176
     0
  0
VISUALSTYLE
  5
46
102
{ACAD_REACTORS
330
2F
102
}
330
2F
100
AcDbVisualStyle
  2
Realistic
 70
     8
177
     3
291
     0
 70
    58
 90
        2
176
     1
 90
        2
176
     1
 90
        1
176
     1
 90
        0
176
     1
 40
0.6
176
     1
 40
30.0
176
     1
 62
     7
176
     1
 90
        1
176
     1
 90
        0
176
     1
 62
     7
176
     1
 62
   257
176
     1
 90
        1
176
     1
 90
        1
176
     1
 40
1.0
176
     1
 90
        8
176
     1
 62
     8
176
     1
 40
1.0
176
     1
 90
        1
176
     1
 90
        6
176
     1
 90
        2
176
     1
 62
     7
176
     1
 90
        5
176
     1
 90
        0
176
     1
 90
        0
176
     1
290
     0
176
     1
 90
       13
176
     1
 40
0.0
176
     1
 90
        0
176
     1
290
     0
176
     1
290
     1
176
     1
290
     1
176
     1
290
     0
176
     1
290
     0
176
     1
290
     0
176
     1
290
     0
176
     1
290
     0
176
     1
290
     0
176
     1
 90
       50
176
     1
 40
0.0
176
     1
 40
1.0
176
     1
 90
        0
176
     1
 62
    18
420
        0
176
     1
 90
       50
176
     1
 90
        3
176
     1
 62
     5
420
      255
176
     1
290
     0
176
     1
 90
       50
176
     1
 90
       50
176
     1
 90
       50
176
     1
290
     0
176
     1
 90
       50
176
     1
 62
   256
176
     0
 40
1.0
176
     0
 90
        2
176
     1
  1
strokes_ogs.tif
176
     1
290
     0
176
     1
 40
1.0
176
     1
 40
1.0
176
     1
  0
VISUALSTYLE
  5
BD5
102
{ACAD_REACTORS
330
2F
102
}
330
2F
100
AcDbVisualStyle
  2
Shaded
 70
    27
177
     3
291
     0
 70
    58
 90
        2
176
     1
 90
        2
176
     1
 90
        1
176
     1
 90
        2
176
     1
 40
0.6
176
     1
 40
30.0
176
     1
 62
     7
176
     1
 90
        0
176
     1
 90
        4
176
     1
 62
     7
176
     1
 62
   257
176
     1
 90
        1
176
     1
 90
        1
176
     1
 40
1.0
176
     1
 90
        8
176
     1
 62
   257
176
     1
 40
1.0
176
     1
 90
        1
176
     1
 90
        6
176
     1
 90
        2
176
     1
 62
     8
176
     1
 90
        3
176
     1
 90
        0
176
     1
 90
        0
176
     1
290
     0
176
     1
 90
        5
176
     1
 40
0.0
176
     1
 90
        0
176
     1
290
     0
176
     1
290
     1
176
     1
290
     1
176
     1
290
     0
176
     1
290
     0
176
     1
290
     0
176
     1
290
     0
176
     1
290
     0
176
     1
290
     0
176
     1
 90
       50
176
     1
 40
0.0
176
     1
 40
1.0
176
     1
 90
        0
176
     1
 62
    18
420
        0
176
     1
 90
       50
176
     1
 90
        3
176
     1
 62
     5
420
      255
176
     1
290
     0
176
     1
 90
       50
176
     1
 90
       50
176
     1
 90
       50
176
     1
290
     0
176
     1
 90
       50
176
     1
 62
   256
176
     0
 40
1.0
176
     0
 90
        2
176
     1
  1
strokes_ogs.tif
176
     1
290
     0
176
     1
 40
1.0
176
     1
 40
1.0
176
     1
  0
VISUALSTYLE
  5
BD4
102
{ACAD_REACTORS
330
2F
102
}
330
2F
100
AcDbVisualStyle
  2
Shaded with edges
 70
    26
177
     3
291
     0
 70
    58
 90
        2
176
     1
 90
        2
176
     1
 90
        1
176
     1
 90
        2
176
     1
 40
0.6
176
     1
 40
30.0
176
     1
 62
     7
176
     1
 90
        1
176
     1
 90
       10
176
     1
 62
     7
176
     1
 62
   257
176
     1
 90
        2
176
     1
 90
        1
176
     1
 40
1.0
176
     1
 90
        8
176
     1
 62
   257
176
     1
 40
1.0
176
     1
 90
        1
176
     1
 90
        6
176
     1
 90
        2
176
     1
 62
     7
176
     1
 90
        3
176
     1
 90
        0
176
     1
 90
        0
176
     1
290
     0
176
     1
 90
        5
176
     1
 40
0.0
176
     1
 90
        0
176
     1
290
     0
176
     1
290
     1
176
     1
290
     1
176
     1
290
     0
176
     1
290
     0
176
     1
290
     0
176
     1
290
     0
176
     1
290
     0
176
     1
290
     0
176
     1
 90
       50
176
     1
 40
0.0
176
     1
 40
1.0
176
     1
 90
        0
176
     1
 62
    18
420
        0
176
     1
 90
       50
176
     1
 90
        3
176
     1
 62
     5
420
      255
176
     1
290
     0
176
     1
 90
       50
176
     1
 90
       50
176
     1
 90
       50
176
     1
290
     0
176
     1
 90
       50
176
     1
 62
   256
176
     0
 40
1.0
176
     0
 90
        2
176
     1
  1
strokes_ogs.tif
176
     1
290
     0
176
     1
 40
1.0
176
     1
 40
1.0
176
     1
  0
VISUALSTYLE
  5
BD1
102
{ACAD_REACTORS
330
2F
102
}
330
2F
100
AcDbVisualStyle
  2
Shades of Gray
 70
    23
177
     3
291
     0
 70
    58
 90
        2
176
     1
 90
        2
176
     1
 90
        3
176
     1
 90
        0
176
     1
 40
0.6
176
     1
 40
30.0
176
     1
 62
     7
176
     1
 90
        2
176
     1
 90
        2
176
     1
 62
     7
176
     1
 62
     7
176
     1
 90
        1
176
     1
 90
        1
176
     1
 40
40.0
176
     1
 90
        8
176
     1
 62
     7
176
     1
 40
1.0
176
     1
 90
        1
176
     1
 90
        6
176
     1
 90
        2
176
     1
 62
     7
176
     1
 90
        3
176
     1
 90
        0
176
     1
 90
        0
176
     1
290
     0
176
     1
 90
        1
176
     1
 40
0.0
176
     1
 90
        0
176
     1
290
     0
176
     1
290
     1
176
     1
290
     1
176
     1
290
     0
176
     1
290
     0
176
     1
290
     0
176
     1
290
     0
176
     1
290
     0
176
     1
290
     0
176
     1
 90
       50
176
     1
 40
0.0
176
     1
 40
1.0
176
     1
 90
        0
176
     1
 62
    18
420
        0
176
     1
 90
       50
176
     1
 90
        3
176
     1
 62
     5
420
      255
176
     1
290
     0
176
     1
 90
       50
176
     1
 90
       50
176
     1
 90
       50
176
     1
290
     0
176
     1
 90
       50
176
     1
 62
   256
176
     0
 40
1.0
176
     0
 90
        2
176
     1
  1
strokes_ogs.tif
176
     1
290
     0
176
     1
 40
1.0
176
     1
 40
1.0
176
     1
  0
VISUALSTYLE
  5
BD2
102
{ACAD_REACTORS
330
2F
102
}
330
2F
100
AcDbVisualStyle
  2
Sketchy
 70
    24
177
     3
291
     0
 70
    58
 90
        1
176
     1
 90
        2
176
     1
 90
        2
176
     1
 90
        0
176
     1
 40
0.6
176
     1
 40
30.0
176
     1
 62
     7
176
     1
 90
        2
176
     1
 90
        2
176
     1
 62
     7
176
     1
 62
     7
176
     1
 90
        1
176
     1
 90
        1
176
     1
 40
40.0
176
     1
 90
       11
176
     1
 62
     7
176
     1
 40
1.0
176
     1
 90
        1
176
     1
 90
        6
176
     1
 90
        2
176
     1
 62
     7
176
     1
 90
        6
176
     1
 90
        0
176
     1
 90
        0
176
     1
290
     0
176
     1
 90
        1
176
     1
 40
0.0
176
     1
 90
        0
176
     1
290
     0
176
     1
290
     1
176
     1
290
     1
176
     1
290
     0
176
     1
290
     0
176
     1
290
     0
176
     1
290
     0
176
     1
290
     0
176
     1
290
     0
176
     1
 90
       50
176
     1
 40
0.0
176
     1
 40
1.0
176
     1
 90
        0
176
     1
 62
    18
420
        0
176
     1
 90
       50
176
     1
 90
        3
176
     1
 62
     5
420
      255
176
     1
290
     0
176
     1
 90
       50
176
     1
 90
       50
176
     1
 90
       50
176
     1
290
     0
176
     1
 90
       50
176
     1
 62
   256
176
     0
 40
1.0
176
     0
 90
        2
176
     1
  1
strokes_ogs.tif
176
     1
290
     0
176
     1
 40
1.0
176
     1
 40
1.0
176
     1
  0
VISUALSTYLE
  5
BCD
102
{ACAD_REACTORS
330
2F
102
}
330
2F
100
AcDbVisualStyle
  2
Thicken
 70
    13
177
     3
291
     1
 70
    58
 90
        2
176
     1
 90
        2
176
     1
 90
        0
176
     1
 90
        0
176
     1
 40
0.6
176
     1
 40
30.0
176
     1
 62
     7
176
     1
 90
        1
176
     1
 90
        4
176
     1
 62
     7
176
     1
 62
   257
176
     1
 90
        1
176
     1
 90
        1
176
     1
 40
1.0
176
     1
 90
       12
176
     1
 62
     7
176
     1
 40
1.0
176
     1
 90
        1
176
     1
 90
        6
176
     1
 90
        2
176
     1
 62
     7
176
     1
 90
        5
176
     1
 90
        0
176
     1
 90
        0
176
     1
290
     0
176
     1
 90
        1
176
     1
 40
0.0
176
     1
 90
        0
176
     1
290
     0
176
     1
290
     1
176
     1
290
     1
176
     1
290
     0
176
     1
290
     0
176
     1
290
     0
176
     1
290
     0
176
     1
290
     0
176
     1
290
     0
176
     1
 90
       50
176
     1
 40
0.0
176
     1
 40
1.0
176
     1
 90
        0
176
     1
 62
    18
420
        0
176
     1
 90
       50
176
     1
 90
        3
176
     1
 62
     5
420
      255
176
     1
290
     0
176
     1
 90
       50
176
     1
 90
       50
176
     1
 90
       50
176
     1
290
     0
176
     1
 90
       50
176
     1
 62
   256
176
     0
 40
1.0
176
     0
 90
        2
176
     1
  1
strokes_ogs.tif
176
     1
290
     0
176
     1
 40
1.0
176
     1
 40
1.0
176
     1
  0
VISUALSTYLE
  5
BC8
102
{ACAD_REACTORS
330
2F
102
}
330
2F
100
AcDbVisualStyle
  2
Wireframe
 70
     5
177
     3
291
     0
 70
    58
 90
        0
176
     1
 90
        2
176
     1
 90
        0
176
     1
 90
        0
176
     1
 40
0.6
176
     1
 40
30.0
176
     1
 62
     7
176
     1
 90
        1
176
     1
 90
        4
176
     1
 62
     7
176
     1
 62
   257
176
     1
 90
        1
176
     1
 90
        1
176
     1
 40
1.0
176
     1
 90
        0
176
     1
 62
   257
176
     1
 40
1.0
176
     1
 90
        1
176
     1
 90
        6
176
     1
 90
        2
176
     1
 62
     7
176
     1
 90
        3
176
     1
 90
        0
176
     1
 90
        0
176
     1
290
     0
176
     1
 90
        1
176
     1
 40
0.0
176
     1
 90
        0
176
     1
290
     0
176
     1
290
     1
176
     1
290
     1
176
     1
290
     0
176
     1
290
     0
176
     1
290
     0
176
     1
290
     0
176
     1
290
     0
176
     1
290
     0
176
     1
 90
       50
176
     1
 40
0.0
176
     1
 40
1.0
176
     1
 90
        0
176
     1
 62
    18
420
        0
176
     1
 90
       50
176
     1
 90
        3
176
     1
 62
     5
420
      255
176
     1
290
     0
176
     1
 90
       50
176
     1
 90
       50
176
     1
 90
       50
176
     1
290
     0
176
     1
 90
       50
176
     1
 62
   256
176
     0
 40
1.0
176
     0
 90
        2
176
     1
  1
strokes_ogs.tif
176
     1
290
     0
176
     1
 40
1.0
176
     1
 40
1.0
176
     1
  0
VISUALSTYLE
  5
BD3
102
{ACAD_REACTORS
330
2F
102
}
330
2F
100
AcDbVisualStyle
  2
X-Ray
 70
    25
177
     3
291
     0
 70
    58
 90
        2
176
     1
 90
        2
176
     1
 90
        1
176
     1
 90
        1
176
     1
 40
0.5
176
     1
 40
30.0
176
     1
 62
     7
176
     1
 90
        1
176
     1
 90
        0
176
     1
 62
     7
176
     1
 62
   257
176
     1
 90
        1
176
     1
 90
        1
176
     1
 40
1.0
176
     1
 90
        8
176
     1
 62
     7
176
     1
 40
1.0
176
     1
 90
        1
176
     1
 90
        6
176
     1
 90
        2
176
     1
 62
     7
176
     1
 90
        3
176
     1
 90
        0
176
     1
 90
        0
176
     1
290
     0
176
     1
 90
       13
176
     1
 40
0.0
176
     1
 90
        0
176
     1
290
     0
176
     1
290
     1
176
     1
290
     1
176
     1
290
     0
176
     1
290
     0
176
     1
290
     0
176
     1
290
     0
176
     1
290
     0
176
     1
290
     0
176
     1
 90
       50
176
     1
 40
0.0
176
     1
 40
1.0
176
     1
 90
        0
176
     1
 62
    18
420
        0
176
     1
 90
       50
176
     1
 90
        3
176
     1
 62
     5
420
      255
176
     1
290
     0
176
     1
 90
       50
176
     1
 90
       50
176
     1
 90
       50
176
     1
290
     0
176
     1
 90
       50
176
     1
 62
   256
176
     0
 40
1.0
176
     0
 90
        2
176
     1
  1
strokes_ogs.tif
176
     1
290
     0
176
     1
 40
1.0
176
     1
 40
1.0
176
     1
  0
DICTIONARYVAR
  5
BBE
102
{ACAD_REACTORS
330
BB8
102
}
330
BB8
100
DictionaryVariables
280
     0
  1
1:1
  0
DICTIONARYVAR
  5
BBA
102
{ACAD_REACTORS
330
BB8
102
}
330
BB8
100
DictionaryVariables
280
     0
  1
STANDARD
  0
DICTIONARYVAR
  5
BB9
102
{ACAD_REACTORS
330
BB8
102
}
330
BB8
100
DictionaryVariables
280
     0
  1
STANDARD
  0
DICTIONARYVAR
  5
BBB
102
{ACAD_REACTORS
330
BB8
102
}
330
BB8
100
DictionaryVariables
280
     0
  1
Metric50
  0
DICTIONARYVAR
  5
BBC
102
{ACAD_REACTORS
330
BB8
102
}
330
BB8
100
DictionaryVariables
280
     0
  1
Metric50
  0
DICTIONARYVAR
  5
C3B
102
{ACAD_REACTORS
330
BB8
102
}
330
BB8
100
DictionaryVariables
280
     0
  1
1
  0
DICTIONARYVAR
  5
C39
102
{ACAD_REACTORS
330
BB8
102
}
330
BB8
100
DictionaryVariables
280
     0
  1
1
  0
DICTIONARYVAR
  5
FF3
102
{ACAD_REACTORS
330
BB8
102
}
330
BB8
100
DictionaryVariables
280
     0
  1
4
  0
DICTIONARYVAR
  5
C38
102
{ACAD_REACTORS
330
BB8
102
}
330
BB8
100
DictionaryVariables
280
     0
  1
0
  0
DICTIONARYVAR
  5
BC0
102
{ACAD_REACTORS
330
BB8
102
}
330
BB8
100
DictionaryVariables
280
     0
  1
1
  0
DICTIONARYVAR
  5
BC1
102
{ACAD_REACTORS
330
BB8
102
}
330
BB8
100
DictionaryVariables
280
     0
  1
15
  0
DICTIONARYVAR
  5
BBF
102
{ACAD_REACTORS
330
BB8
102
}
330
BB8
100
DictionaryVariables
280
     0
  1
0
  0
DICTIONARYVAR
  5
BBD
102
{ACAD_REACTORS
330
BB8
102
}
330
BB8
100
DictionaryVariables
280
     0
  1
0
  0
DICTIONARYVAR
  5
C3C
102
{ACAD_REACTORS
330
BB8
102
}
330
BB8
100
DictionaryVariables
280
     0
  1
1
  0
DICTIONARYVAR
  5
C37
102
{ACAD_REACTORS
330
BB8
102
}
330
BB8
100
DictionaryVariables
280
     0
  1
127
  0
ACDBASSOCNETWORK
  5
4C1A6
102
{ACAD_REACTORS
330
4C1A5
102
}
330
4C1A5
100
AcDbAssocAction
 90
        2
 90
        0
330
4BEA6
360
0
 90
        2
 90
        0
 90
        0
 90
        0
 90
        0
 90
        0
 90
        0
100
AcDbAssocNetwork
 90
        0
 90
       51
 90
        1
360
4DD79
 90
        0
  0
DICTIONARY
  5
4DE83
330
283CD
100
AcDbDictionary
280
     1
281
     1
  3
ACAD_XREC_ROUNDTRIP
360
4DE84
  0
DICTIONARY
  5
4DE7F
330
BDD
100
AcDbDictionary
280
     1
281
     1
  3
ACAD_XREC_ROUNDTRIP
360
4DE80
  0
DICTIONARY
  5
18
330
16
100
AcDbDictionary
280
     1
281
     1
  0
DICTIONARY
  5
1F
330
1E
100
AcDbDictionary
280
     1
281
     1
  0
DICTIONARY
  5
E
330
C
100
AcDbDictionary
280
     1
281
     1
  3
BUMPTILE
360
F
  3
DIFFUSETILE
360
10
  3
OPACITYTILE
360
11
  3
REFLECTIONTILE
360
12
  0
DICTIONARY
  5
4DE81
330
283CC
100
AcDbDictionary
280
     1
281
     1
  3
ACAD_XREC_ROUNDTRIP
360
4DE82
  0
DICTIONARY
  5
4DE7D
330
BDB
100
AcDbDictionary
280
     1
281
     1
  3
ACAD_XREC_ROUNDTRIP
360
4DE7E
  0
DICTIONARY
  5
45
330
44
100
AcDbDictionary
280
     1
281
     1
  3
ACAD_ROUNDTRIP_2008_TABLESTYLE_CELLSTYLEMAP
360
4DE7C
  0
ACDBASSOCACTION
  5
4DD79
330
4C1A6
100
AcDbAssocAction
 90
        2
 90
        0
330
4C1A6
360
4DD7A
 90
       51
 90
        3
 90
        3
360
4DD7B
360
4DD7C
360
4DD7D
 90
        0
 90
        3
360
4DD7E
360
4DD7F
360
4DD80
 90
        0
 90
       10
 90
        0
  1
FillAngle
 90
        2
 90
        1
 40
6.283185307179586
330
0
330
0
 90
        0
  1
ItemSpacing
 90
        2
 90
        1
 40
1.047197551196597
330
0
330
0
 90
        0
  1
Items
 90
        0
 90
        1
 90
        6
330
0
330
0
 90
        0
  1
LevelSpacing
 90
        1
 90
        1
 40
1.0
330
0
330
0
 90
        0
  1
Levels
 90
        0
 90
        1
 90
        1
330
0
330
0
 90
        0
  1
RowElevation
 90
        1
 90
        1
 40
0.0
330
0
330
0
 90
        0
  1
RowSpacing
 90
        1
 90
        1
 40
7.500000029999981
330
0
330
0
 90
        0
  1
Rows
 90
        0
 90
        1
 90
        1
330
0
330
0
 90
        0
  1
Radius
 90
        1
 90
        1
 40
16.6503123804535
330
0
330
0
 90
        0
  1
StartAngle
 90
        2
 90
        1
 40
1.564670758188887
330
0
330
0
  0
XRECORD
  5
4DE84
102
{ACAD_REACTORS
330
4DE83
102
}
330
4DE83
100
AcDbXrecord
280
     1
102
DISPLAYNAME
  1
Imperial24
102
FLAGS
 90
        0
  0
XRECORD
  5
4DE80
102
{ACAD_REACTORS
330
4DE7F
102
}
330
4DE7F
100
AcDbXrecord
280
     1
102
DISPLAYNAME
  1
Metric50
102
FLAGS
 90
        0
  0
XRECORD
  5
F
102
{ACAD_REACTORS
330
E
102
}
330
E
100
AcDbXrecord
280
     1
270
     1
271
     1
  0
XRECORD
  5
10
102
{ACAD_REACTORS
330
E
102
}
330
E
100
AcDbXrecord
280
     1
270
     1
271
     1
  0
XRECORD
  5
11
102
{ACAD_REACTORS
330
E
102
}
330
E
100
AcDbXrecord
280
     1
270
     1
271
     1
  0
XRECORD
  5
12
102
{ACAD_REACTORS
330
E
102
}
330
E
100
AcDbXrecord
280
     1
270
     1
271
     1
  0
XRECORD
  5
4DE82
102
{ACAD_REACTORS
330
4DE81
102
}
330
4DE81
100
AcDbXrecord
280
     1
102
DISPLAYNAME
  1
Imperial24
102
FLAGS
 90
        0
  0
XRECORD
  5
4DE7E
102
{ACAD_REACTORS
330
4DE7D
102
}
330
4DE7D
100
AcDbXrecord
280
     1
102
DISPLAYNAME
  1
Metric50
102
FLAGS
 90
        0
  0
CELLSTYLEMAP
  5
4DE7C
102
{ACAD_REACTORS
330
45
102
}
330
45
100
AcDbCellStyleMap
 90
        3
300
CELLSTYLE
  1
TABLEFORMAT_BEGIN
 90
        5
170
     1
 91
        0
 92
    32768
 62
   257
 93
        1
300
CONTENTFORMAT
  1
CONTENTFORMAT_BEGIN
 90
        0
 91
        0
 92
      512
 93
        0
300

 40
0.0
140
1.0
 94
        5
 62
     0
340
25
144
6.0
309
CONTENTFORMAT_END
171
     1
301
MARGIN
  1
CELLMARGIN_BEGIN
 40
1.5
 40
1.5
 40
1.5
 40
1.5
 40
0.18
 40
0.18
309
CELLMARGIN_END
 94
        6
 95
        1
302
GRIDFORMAT
  1
GRIDFORMAT_BEGIN
 90
        0
 91
        1
 62
     0
 92
       -2
340
28
 93
        0
 40
1.125
309
GRIDFORMAT_END
 95
        2
302
GRIDFORMAT
  1
GRIDFORMAT_BEGIN
 90
        0
 91
        1
 62
     0
 92
       -2
340
28
 93
        0
 40
1.125
309
GRIDFORMAT_END
 95
        4
302
GRIDFORMAT
  1
GRIDFORMAT_BEGIN
 90
        0
 91
        1
 62
     0
 92
       -2
340
28
 93
        0
 40
1.125
309
GRIDFORMAT_END
 95
        8
302
GRIDFORMAT
  1
GRIDFORMAT_BEGIN
 90
        0
 91
        1
 62
     0
 92
       -2
340
28
 93
        0
 40
1.125
309
GRIDFORMAT_END
 95
       16
302
GRIDFORMAT
  1
GRIDFORMAT_BEGIN
 90
        0
 91
        1
 62
     0
 92
       -2
340
28
 93
        0
 40
1.125
309
GRIDFORMAT_END
 95
       32
302
GRIDFORMAT
  1
GRIDFORMAT_BEGIN
 90
        0
 91
        1
 62
     0
 92
       -2
340
28
 93
        0
 40
1.125
309
GRIDFORMAT_END
309
TABLEFORMAT_END
  1
CELLSTYLE_BEGIN
 90
        1
 91
        1
300
_TITLE
309
CELLSTYLE_END
300
CELLSTYLE
  1
TABLEFORMAT_BEGIN
 90
        5
170
     1
 91
        0
 92
        0
 62
   257
 93
        1
300
CONTENTFORMAT
  1
CONTENTFORMAT_BEGIN
 90
        0
 91
        0
 92
      512
 93
        0
300

 40
0.0
140
1.0
 94
        5
 62
     0
340
25
144
4.5
309
CONTENTFORMAT_END
171
     1
301
MARGIN
  1
CELLMARGIN_BEGIN
 40
1.5
 40
1.5
 40
1.5
 40
1.5
 40
0.18
 40
0.18
309
CELLMARGIN_END
 94
        6
 95
        1
302
GRIDFORMAT
  1
GRIDFORMAT_BEGIN
 90
        0
 91
        1
 62
     0
 92
       -2
340
28
 93
        0
 40
1.125
309
GRIDFORMAT_END
 95
        2
302
GRIDFORMAT
  1
GRIDFORMAT_BEGIN
 90
        0
 91
        1
 62
     0
 92
       -2
340
28
 93
        0
 40
1.125
309
GRIDFORMAT_END
 95
        4
302
GRIDFORMAT
  1
GRIDFORMAT_BEGIN
 90
        0
 91
        1
 62
     0
 92
       -2
340
28
 93
        0
 40
1.125
309
GRIDFORMAT_END
 95
        8
302
GRIDFORMAT
  1
GRIDFORMAT_BEGIN
 90
        0
 91
        1
 62
     0
 92
       -2
340
28
 93
        0
 40
1.125
309
GRIDFORMAT_END
 95
       16
302
GRIDFORMAT
  1
GRIDFORMAT_BEGIN
 90
        0
 91
        1
 62
     0
 92
       -2
340
28
 93
        0
 40
1.125
309
GRIDFORMAT_END
 95
       32
302
GRIDFORMAT
  1
GRIDFORMAT_BEGIN
 90
        0
 91
        1
 62
     0
 92
       -2
340
28
 93
        0
 40
1.125
309
GRIDFORMAT_END
309
TABLEFORMAT_END
  1
CELLSTYLE_BEGIN
 90
        2
 91
        1
300
_HEADER
309
CELLSTYLE_END
300
CELLSTYLE
  1
TABLEFORMAT_BEGIN
 90
        5
170
     1
 91
        0
 92
        0
 62
   257
 93
        1
300
CONTENTFORMAT
  1
CONTENTFORMAT_BEGIN
 90
        0
 91
        0
 92
      512
 93
        0
300

 40
0.0
140
1.0
 94
        2
 62
     0
340
25
144
4.5
309
CONTENTFORMAT_END
171
     1
301
MARGIN
  1
CELLMARGIN_BEGIN
 40
1.5
 40
1.5
 40
1.5
 40
1.5
 40
0.18
 40
0.18
309
CELLMARGIN_END
 94
        6
 95
        1
302
GRIDFORMAT
  1
GRIDFORMAT_BEGIN
 90
        0
 91
        1
 62
     0
 92
       -2
340
28
 93
        0
 40
1.125
309
GRIDFORMAT_END
 95
        2
302
GRIDFORMAT
  1
GRIDFORMAT_BEGIN
 90
        0
 91
        1
 62
     0
 92
       -2
340
28
 93
        0
 40
1.125
309
GRIDFORMAT_END
 95
        4
302
GRIDFORMAT
  1
GRIDFORMAT_BEGIN
 90
        0
 91
        1
 62
     0
 92
       -2
340
28
 93
        0
 40
1.125
309
GRIDFORMAT_END
 95
        8
302
GRIDFORMAT
  1
GRIDFORMAT_BEGIN
 90
        0
 91
        1
 62
     0
 92
       -2
340
28
 93
        0
 40
1.125
309
GRIDFORMAT_END
 95
       16
302
GRIDFORMAT
  1
GRIDFORMAT_BEGIN
 90
        0
 91
        1
 62
     0
 92
       -2
340
28
 93
        0
 40
1.125
309
GRIDFORMAT_END
 95
       32
302
GRIDFORMAT
  1
GRIDFORMAT_BEGIN
 90
        0
 91
        1
 62
     0
 92
       -2
340
28
 93
        0
 40
1.125
309
GRIDFORMAT_END
309
TABLEFORMAT_END
  1
CELLSTYLE_BEGIN
 90
        3
 91
        2
300
_DATA
309
CELLSTYLE_END
  0
ACDBASSOCARRAYACTIONBODY
  5
4DD7A
330
4DD79
100
AcDbAssocActionBody
 90
        2
100
AcDbAssocArrayActionBody
 90
        1
  1
AcDbAssocArrayPolarParameters
 90
        0
 90
        6
  1
AcDbAssocArrayItem
100
AcDbAssocArrayItem
 90
        0
 90
        0
 90
        0
 90
        0
 90
        8
 11
324.3486555669998
 21
159.7650269865458
 31
0.0
330
4DD89
100
AcDbAssocArrayItem
 90
        0
 90
        1
 90
        0
 90
        0
 90
       12
 40
0.5
 40
-0.8660254037844389
 40
0.0
 40
309.8783365975068
 40
0.8660254037844389
 40
0.5
 40
0.0
 40
151.528354643432
 40
0.0
 40
0.0
 40
1.0
 40
0.0
 40
0.0
 40
0.0
 40
0.0
 40
1.0
330
4DD8A
100
AcDbAssocArrayItem
 90
        0
 90
        2
 90
        0
 90
        0
 90
       12
 40
-0.5
 40
-0.866025403784439
 40
0.0
 40
309.7763446045457
 40
0.8660254037844387
 40
-0.4999999999999998
 40
0.0
 40
134.8783546434303
 40
0.0
 40
0.0
 40
1.0
 40
0.0
 40
0.0
 40
0.0
 40
0.0
 40
1.0
330
4DD8B
100
AcDbAssocArrayItem
 90
        0
 90
        3
 90
        0
 90
        0
 90
       12
 40
-1.0
 40
-0.0000000000000009
 40
0.0
 40
324.1446715810774
 40
0.0000000000000005
 40
-1.0
 40
0.0
 40
126.4650269865425
 40
0.0
 40
0.0
 40
0.9999999999999998
 40
0.0
 40
0.0
 40
0.0
 40
0.0
 40
1.0
330
4DD8C
100
AcDbAssocArrayItem
 90
        0
 90
        4
 90
        0
 90
        0
 90
       12
 40
-0.5
 40
0.8660254037844387
 40
0.0
 40
338.6149905505704
 40
-0.8660254037844389
 40
-0.5000000000000005
 40
0.0
 40
134.7016993296563
 40
0.0
 40
0.0
 40
1.0
 40
0.0
 40
0.0
 40
0.0
 40
0.0
 40
1.0
330
4DD8D
100
AcDbAssocArrayItem
 90
        0
 90
        5
 90
        0
 90
        0
 90
       12
 40
0.4999999999999992
 40
0.8660254037844396
 40
0.0
 40
338.7169825435316
 40
-0.866025403784439
 40
0.4999999999999986
 40
0.0
 40
151.351699329658
 40
0.0
 40
0.0
 40
1.0
 40
0.0
 40
0.0
 40
0.0
 40
0.0
 40
1.0
330
4DD8E
 40
1.0
 40
0.0
 40
0.0
 40
-147.0166309222742
 40
0.0
 40
1.0
 40
0.0
 40
-56.67099689187051
 40
0.0
 40
0.0
 40
1.0
 40
0.0
 40
0.0
 40
0.0
 40
0.0
 40
1.0
  0
ACDBASSOCDEPENDENCY
  5
4DD7B
330
4DD79
100
AcDbAssocDependency
 90
        2
 90
        0
290
     0
290
     1
290
     1
290
     1
 90
        0
330
4DD86
290
     0
330
0
330
0
360
0
 90
        1
  0
ACDBASSOCDEPENDENCY
  5
4DD7C
330
4DD79
100
AcDbAssocDependency
 90
        2
 90
        0
290
     1
290
     0
290
     1
290
     1
 90
        0
330
4DD81
290
     0
330
0
330
0
360
0
 90
        2
  0
ACDBASSOCDEPENDENCY
  5
4DD7D
330
4DD79
100
AcDbAssocDependency
 90
        2
 90
        0
290
     1
290
     1
290
     1
290
     1
 90
-2147483648
330
4DD63
290
     0
330
0
330
0
360
0
 90
        3
  0
ACDBASSOCVERTEXACTIONPARAM
  5
4DD7E
330
4DD79
100
AcDbAssocActionParam
 90
        1
 90
        0
  1
BaseNormal
100
AcDbAssocSingleDependencyActionParam
 90
        0
330
0
100
AcDbAssocVertexActionParam
 90
        0
 10
0.0
 20
0.0
 30
1.0
  0
ACDBASSOCVERTEXACTIONPARAM
  5
4DD7F
330
4DD79
100
AcDbAssocActionParam
 90
        1
 90
        0
  1
Origin
100
AcDbAssocSingleDependencyActionParam
 90
        0
330
0
100
AcDbAssocVertexActionParam
 90
        0
 10
324.2466635740386
 20
143.1150269865441
 30
0.0
  0
ACDBASSOCVERTEXACTIONPARAM
  5
4DD80
330
4DD79
100
AcDbAssocActionParam
 90
        1
 90
        0
  1
basePoint
100
AcDbAssocSingleDependencyActionParam
 90
        0
330
0
100
AcDbAssocVertexActionParam
 90
        0
 10
0.0
 20
0.0
 30
0.0
  0
ENDSEC
  0
SECTION
  2
ACDSDATA
 70
     2
 71
     6
  0
ACDSSCHEMA
 90
        0
  1
AcDb_Thumbnail_Schema
  2
AcDbDs::ID
280
    10
 91
        8
  2
Thumbnail_Data
280
    15
 91
        0
101
ACDSRECORD
 95
        0
 90
        1
  2
AcDbDs::TreatedAsObjectData
280
     1
291
     1
101
ACDSRECORD
 95
        0
 90
        2
  2
AcDbDs::Legacy
280
     1
291
     1
101
ACDSRECORD
  1
AcDbDs::ID
 90
        3
  2
AcDs:Indexable
280
     1
291
     1
101
ACDSRECORD
  1
AcDbDs::ID
 90
        4
  2
AcDbDs::HandleAttribute
280
     7
282
     1
  0
ACDSSCHEMA
 90
        1
  1
AcDbDs::TreatedAsObjectDataSchema
  2
AcDbDs::TreatedAsObjectData
280
     1
 91
        0
  0
ACDSSCHEMA
 90
        2
  1
AcDbDs::LegacySchema
  2
AcDbDs::Legacy
280
     1
 91
        0
  0
ACDSSCHEMA
 90
        3
  1
AcDbDs::IndexedPropertySchema
  2
AcDs:Indexable
280
     1
 91
        0
  0
ACDSSCHEMA
 90
        4
  1
AcDbDs::HandleAttributeSchema
  2
AcDbDs::HandleAttribute
280
     7
 91
        1
284
     1
  0
ACDSRECORD
 90
        0
  2
AcDbDs::ID
280
    10
320
16
  2
Thumbnail_Data
280
    15
 94
     1651
310
89504E470D0A1A0A0000000D49484452000001000000007508030000009634CF9200000300504C5445000000000000C8C8C80000000000000000000000000000000000000000000000000000330000660000990000CC0000FF0033000033330033660033990033CC0033FF0066000066330066660066990066CC0066FF0099
310
000099330099660099990099CC0099FF00CC0000CC3300CC6600CC9900CCCC00CCFF00FF0000FF3300FF6600FF9900FFCC00FFFF3300003300333300663300993300CC3300FF3333003333333333663333993333CC3333FF3366003366333366663366993366CC3366FF3399003399333399663399993399CC3399FF33CC00
310
33CC3333CC6633CC9933CCCC33CCFF33FF0033FF3333FF6633FF9933FFCC33FFFF6600006600336600666600996600CC6600FF6633006633336633666633996633CC6633FF6666006666336666666666996666CC6666FF6699006699336699666699996699CC6699FF66CC0066CC3366CC6666CC9966CCCC66CCFF66FF0066
310
FF3366FF6666FF9966FFCC66FFFF9900009900339900669900999900CC9900FF9933009933339933669933999933CC9933FF9966009966339966669966999966CC9966FF9999009999339999669999999999CC9999FF99CC0099CC3399CC6699CC9999CCCC99CCFF99FF0099FF3399FF6699FF9999FFCC99FFFFCC0000CC00
310
33CC0066CC0099CC00CCCC00FFCC3300CC3333CC3366CC3399CC33CCCC33FFCC6600CC6633CC6666CC6699CC66CCCC66FFCC9900CC9933CC9966CC9999CC99CCCC99FFCCCC00CCCC33CCCC66CCCC99CCCCCCCCCCFFCCFF00CCFF33CCFF66CCFF99CCFFCCCCFFFFFF0000FF0033FF0066FF0099FF00CCFF00FFFF3300FF3333
310
FF3366FF3399FF33CCFF33FFFF6600FF6633FF6666FF6699FF66CCFF66FFFF9900FF9933FF9966FF9999FF99CCFF99FFFFCC00FFCC33FFCC66FFCC99FFCCCCFFCCFFFFFF00FFFF33FFFF66FFFF99FFFFCCFFFFFF0000000D0D0D1A1A1A2828283535354343435050505D5D5D6B6B6B787878868686939393A1A1A1AEAEAEBB
310
BBBBC9C9C9D6D6D6E4E4E4F1F1F1FFFFFF00000000000000000000000000000000000000000000000000000000000008F1915C0000032E4944415478DAED9D5DB6AB200C8519CE7EE9CC3A64A691F75B41140401CFADE5C79D75561F347ACC671213C056A97B44BEAC57AFD889540390C1004842B4962AF9B69E24F51ADC59
310
ADEB8EFDB69ED20D3C4566893D02200002200002200002200002200002B8209F3EAD7B00D5AD140110007300011000011000011000011000011040EDD9A57F00375F2243800008800008E09AE89BC768088000086044007649173C11E40BBCBA2560E3003046FB5B902F6FB17C941974090049A38E6743FE7F0AACF1328507
310
6C7E5F06F0311BCA44C8F2A74A8B4BBB9C1BC46950973D605181D803B02AE52EA2CBA931FC3D0758FBB1EFB74ED0358068F5AEF1DED49ADE57D103C49A0C7F7F9E40077383F1CA65C467792DF69793A03B07FCFDCB36E938094AC402C7A3C4DA5F060097FBE103402611F6066035436295970B01F794402A512400600E00AF
310
2D04CE01F8950F8210C0E985740AE0709C58FB2B00600F1004D1321C80B42C8FC2CFA3050B853C80A06C1811C0B9AAB1BD0C007EE4771C02AE663537D7B57B82A0EF336581D7009ACF1400BF55DC3FB3BD631F1E20A122D2FD9D9F034A1E20A6201AC1036E02A09696A88310902B00CE2BC118802A01589BA17212947BEDBF
310
08C0558227EFF7553C06E15B8D1A00D28D075C0981934AD0BFEF1B00C93503774FDFFE1800BC9ACF35442394C29500AC195AE94C3314543FEB7808641200CE0390193691601CC0C401E2F6B22F00A97AF74F49D08D88040080FC88507B00A83F51ED98E0DE529A9B2FEA4100D6513198C8B703C30D4785BF06E0C2B0B8720D
310
D55AFF43947A9407EC8F8CC5FE629D330E80686E10C86BA36A72701800A857BDEE5973025004D01E40D5CC506300EDA7C62E00B88140075363570028E0D139E006272000022000022000026807405B295654DB744895FA481E604C2B03D0B302D0FADAE2E8F93CA0B5F0BD41BE37C810200002200002200002200002208089
310
0048BD4C0A20DAF23EC86F2EB0D9374A4AE00B9B43BCE3FB3EE9576A4A3216D4CF01B40F8100C0FB1D87FEA392A00FE07149F0698F4102F033F15108809520932093E0EC00F658D72742000C81DF00E85E1ADC9E54FF55FBBB84A90BD6B5BF23A8551FF25F00546300FF00D0C2BD08433DA5AF0000000049454E44AE426082
  0
ACDSRECORD
 90
        0
  2
AcDbDs::ID
280
    10
320
1E
  2
Thumbnail_Data
280
    15
 94
     1014
310
89504E470D0A1A0A0000000D49484452000000B80000007F08030000006B00F8F900000300504C5445FFFFFF000000FFFFFF0000000000000000000000000000000000000000000000000000330000660000990000CC0000FF0033000033330033660033990033CC0033FF0066000066330066660066990066CC0066FF0099
310
000099330099660099990099CC0099FF00CC0000CC3300CC6600CC9900CCCC00CCFF00FF0000FF3300FF6600FF9900FFCC00FFFF3300003300333300663300993300CC3300FF3333003333333333663333993333CC3333FF3366003366333366663366993366CC3366FF3399003399333399663399993399CC3399FF33CC00
310
33CC3333CC6633CC9933CCCC33CCFF33FF0033FF3333FF6633FF9933FFCC33FFFF6600006600336600666600996600CC6600FF6633006633336633666633996633CC6633FF6666006666336666666666996666CC6666FF6699006699336699666699996699CC6699FF66CC0066CC3366CC6666CC9966CCCC66CCFF66FF0066
310
FF3366FF6666FF9966FFCC66FFFF9900009900339900669900999900CC9900FF9933009933339933669933999933CC9933FF9966009966339966669966999966CC9966FF9999009999339999669999999999CC9999FF99CC0099CC3399CC6699CC9999CCCC99CCFF99FF0099FF3399FF6699FF9999FFCC99FFFFCC0000CC00
310
33CC0066CC0099CC00CCCC00FFCC3300CC3333CC3366CC3399CC33CCCC33FFCC6600CC6633CC6666CC6699CC66CCCC66FFCC9900CC9933CC9966CC9999CC99CCCC99FFCCCC00CCCC33CCCC66CCCC99CCCCCCCCCCFFCCFF00CCFF33CCFF66CCFF99CCFFCCCCFFFFFF0000FF0033FF0066FF0099FF00CCFF00FFFF3300FF3333
310
FF3366FF3399FF33CCFF33FFFF6600FF6633FF6666FF6699FF66CCFF66FFFF9900FF9933FF9966FF9999FF99CCFF99FFFFCC00FFCC33FFCC66FFCC99FFCCCCFFCCFFFFFF00FFFF33FFFF66FFFF99FFFFCCFFFFFF0000000D0D0D1A1A1A2828283535354343435050505D5D5D6B6B6B787878868686939393A1A1A1AEAEAEBB
310
BBBBC9C9C9D6D6D6E4E4E4F1F1F1FFFFFF000000000000000000000000000000000000000000000000000000000000790CAC0F000000B14944415478DAEDDC3B0A80301004D0DCFF987B81ADEC258D4D8A547E46DE968AF01061B25338BAE2A6C79CAE236C72E105FE3EFCFAFED72BBB1B373FB2837FF62D838383833F0A97
310
9CE0E0E0E0E1E771C9090E0E0E0E0E0E0E0EAE9EB04880838383AB27443E3838383838383838B87A021C1C1C1C5CAF22F2C1C1C1C1C1C1C1C1C1F52A362070707070F5043838383838383838B87AC222010E0E0EAE9E909CE0E0E099F0D47F7A4A4EF05FC2F366BA4F0386279D40CB09810000000049454E44AE426082
  0
ENDSEC
  0
EOF
